Адский разрыв насмерть / Mortal Break-up Inferno (Пола Ассадориан, Марлен Бьюб, Дебора Крачон, Максим Делаланд, Тибо Гараль, Батист Перрон) [2014, Франция, мультфильм, WEBRip] original + rus sub

Ответить на тему
Статистика раздачи [Обновить пиров]
Размер:  50 MB   |    Зарегистрирован:  3 месяца 10 дней   |    Скачан:  0 раз

Полного источника не было: Никогда

 
   
 
 
 
Автор Сообщение

torrentc.info

Создавать темы 10-Мар-2018 15:42

[Цитировать]

[img=right]https://c.radikal.ru/c07/1803/bd/1ebdc26ea8ed.jpg[/img]
Адский разрыв насмерть / Mortal Break-up Inferno
Страна: Франция
Жанр: мультфильм
Продолжительность: 00:03:15
Год выхода: 2014
Перевод: субтитры (alex.n42)
Русские субтитры: есть
Режиссёры: Пола Ассадориан, Марлен Бьюб, Дебора Крачон, Максим Делаланд, Тибо Гараль, Батист Перрон / Paula Assadourian, Marlène Beaube, Débora Cruchon, Maxime Delalande, Thibaud Gayral, Batiste Perron
Описание: Один молодой человек решает однажды расстаться со своей девушкой, и незаметно уходит, оставив прощальное письмо. Однако это ему не совсем удаётся: оскорблённая в своих чувствах девушка способна на многое...
Качество: WEBRip
Формат файла: AVI
Видео: 1954 kbps, 720х304 (2.35:1), 25.000 fps, MPEG-4 Visual (XviD)
Аудио: 192 kbps, 44.1 kHz, 2 channels, MPEG Audio (MP3)
Субтитры: softsub (SRT)

Подробные технические данные

GeneralComplete name : Mortal Break-Up Inferno (2014).aviFormat : AVIFormat/Info : Audio Video InterleaveFile size : 50.4 MiBDuration : 3mn 15sOverall bit rate : 2 156 KbpsWriting library : VirtualDub build 35491/release
VideoID : 0Format : MPEG-4 VisualFormat profile : Advanced Simple@L4Format settings, BVOP : 2Format settings, QPel : NoFormat settings, GMC : No warppointsFormat settings, Matrix : Default (H.263)Codec ID : XVIDCodec ID/Hint : XviDDuration : 3mn 15sBit rate : 1 954 KbpsWidth : 720 pixelsHeight : 304 pixelsDisplay aspect ratio : 2.35:1Frame rate : 25.000 fpsColor space : YUVChroma subsampling : 4:2:0Bit depth : 8 bitsScan type : ProgressiveCompression mode : LossyBits/(Pixel*Frame) : 0.357Stream size : 45.6 MiB (91%)Writing library : XviD 64
AudioID : 1Format : MPEG AudioFormat version : Version 1Format profile : Layer 3Mode : Joint stereoCodec ID : 55Codec ID/Hint : MP3Duration : 3mn 15sBit rate mode : ConstantBit rate : 192 KbpsChannel(s) : 2 channelsSampling rate : 44.1 KHzCompression mode : LossyStream size : 4.48 MiB (9%)Alignment : Split accross interleavesInterleave, duration : 40 ms (1.00 video frame)Interleave, preload duration : 500 ms


[torrentc.info]_t_5530821.torrent
Торрент: Зарегистрирован ·  [ 2018-03-10 15:42 ] ·  b80997e4f3c18caf3e41324459c484f067e2146d

16 KB

Статус: проверено
Скачан: 0 раз
Размер: 50 MB
Оценка: 
(Голосов: 0)
Сказали спасибо: 0  Спасибо
Похожие темы
[Профиль]    [ЛС]
Показать сообщения:    
Ответить на тему

Текущее время: Сегодня 20:08

Часовой пояс: GMT + 7



Вы не можете начинать темы
Вы не можете отвечать на сообщения
Вы не можете редактировать свои сообщения
Вы не можете удалять свои сообщения
Вы не можете голосовать в опросах
Вы не можете прикреплять файлы к сообщениям
Вы можете скачивать файлы