Антон Чехов. Привилегии дамского пола - Чтецкая программа Авангарда Леонтьева [2015, литературные чтения, SATRip-AVC] Московский художественный театр

Ответить на тему
Статистика раздачи [Обновить пиров]
Размер:  745 MB   |    Зарегистрирован:  3 месяца 11 дней   |    Скачан:  0 раз

Полного источника не было: Никогда

 
   
 
 
 
Автор Сообщение

torrentc.info

Создавать темы 09-Мар-2018 02:17

[Цитировать]

Антон Чехов. Привилегии дамского пола
Чтецкая программа Авангарда Леонтьева- Название театра: Московский художественный театр
Жанр: литературные чтения
Год выхода: 2015
Продолжительность: 01:42:03
Режиссёр-постановщик: не указан
В ролях: Авангард Леонтьев
Описание: Народный артист России Авангард Леонтьев читает рассказы раннего периода творчества А.П. Чехова: "Бабы" (1891) и "Красавицы" (1888), "Дамы" (1886), "Женское счастье" (1885). Программа сопровождается демонстрацией слайд-шоу из семейного фотоархива писателя. Произведения были созданы в период между 1881-1891-ми годами — тогда молодой Чехов писал под псевдонимом "Ант. Чехонте" — и опубликованы в петербургской газете "Новое время". В основу некоторых из текстов легли реальные события из жизни людей, которых писателю доводилось встречать во время своих поездок по стране.
Доп. информация: Intelsat 15 (85.0°E) Телеканал "Театр" DVB-S

Качество видео: SATRip-AVC
Формат файла: MKV
Видео: AVC (H.264), 720x400 (16:9), 25 fps, ~858 kbps avg, 0.119 bit/pixel
Аудио: MPEG Audio 2, 2 ch, 48 kHz, 160 kbps

MediaInfo

GeneralUnique ID : 44139324524866173174759302497794262050 (0x2134ECB8022BADA8D0E0CC9904300422)Complete name : [apreder]Anton_Tchekhov_Privilegii_damskogo_pola(2015)SATRip.mkvFormat : MatroskaFormat version : Version 2File size : 745 MiBDuration : 1 h 42 minOverall bit rate : 1 020 kb/sMovie name : Антон Чехов. Привилегии дамского полаReleased date : 2015-00-00Encoded date : UTC 2018-03-08 10:52:59Writing application : mkvmerge v21.0.0 ('Tardigrades Will Inherit The Earth') 64-bitWriting library : libebml v1.3.5 + libmatroska v1.4.8Cover : YesAttachments : cover.png / small_cover.pngACTOR : Авангард ЛеонтьевGENRE : TheatreKEYWORDS : TorrentcLAW_RATING : 12+
VideoID : 1Format : AVCFormat/Info : Advanced Video CodecFormat profile : High@L4.1Format settings : CABAC / 9 Ref FramesFormat settings, CABAC : YesFormat settings, RefFrames : 9 framesCodec ID : V_MPEG4/ISO/AVCDuration : 1 h 42 minBit rate : 858 kb/sWidth : 720 pixelsHeight : 400 pixelsDisplay aspect ratio : 16:9Frame rate mode : ConstantFrame rate : 25.000 FPSColor space : YUVChroma subsampling : 4:2:0Bit depth : 8 bitsScan type : ProgressiveBits/(Pixel*Frame) : 0.119Stream size : 613 MiB (82%)Writing library : x264 core 155 r2901 7d0ff22Encoding settings : cabac=1 / ref=9 / deblock=1:-1:-1 / analyse=0x3:0x133 / me=umh / subme=10 / psy=1 / psy_rd=1.00:0.15 / mixed_ref=1 / me_range=24 / chroma_me=1 / trellis=2 / 8x8dct=1 / cqm=0 / deadzone=21,11 / fast_pskip=1 / chroma_qp_offset=-3 / threads=12 / lookahead_threads=3 / sliced_threads=0 / nr=0 / decimate=1 / interlaced=0 / bluray_compat=0 / constrained_intra=0 / bframes=16 / b_pyramid=2 / b_adapt=2 / b_bias=0 / direct=3 / weightb=1 / open_gop=0 / weightp=2 / keyint=250 / keyint_min=25 / scenecut=40 / intra_refresh=0 / rc_lookahead=60 / rc=2pass / mbtree=1 / bitrate=858 / ratetol=1.0 / qcomp=0.60 / qpmin=0 / qpmax=69 / qpstep=4 / cplxblur=20.0 / qblur=0.5 / vbv_maxrate=62500 / vbv_bufsize=78125 / nal_hrd=none / filler=0 / ip_ratio=1.40 / aq=1:1.00Default : YesForced : No
AudioID : 2Format : MPEG AudioFormat version : Version 1Format profile : Layer 2Codec ID : A_MPEG/L2Codec ID/Hint : MP2Duration : 1 h 42 minBit rate mode : ConstantBit rate : 160 kb/sChannel(s) : 2 channelsSampling rate : 48.0 kHzCompression mode : LossyStream size : 117 MiB (16%)Language : RussianDefault : YesForced : No

Скриншот с названием постановки

- [4'062]


[torrentc.info]_t_5531004.torrent
Торрент: Зарегистрирован ·  [ 2018-03-09 02:16 ] ·  d03d05957590f4c107faa0836e8a5c4e38f8089b

8 KB

Статус: проверено
Скачан: 0 раз
Размер: 745 MB
Оценка: 
(Голосов: 0)
Сказали спасибо: 0  Спасибо
Похожие темы
[Профиль]    [ЛС]
Показать сообщения:    
Ответить на тему

Текущее время: Сегодня 20:09

Часовой пояс: GMT + 7



Вы не можете начинать темы
Вы не можете отвечать на сообщения
Вы не можете редактировать свои сообщения
Вы не можете удалять свои сообщения
Вы не можете голосовать в опросах
Вы не можете прикреплять файлы к сообщениям
Вы можете скачивать файлы