Кибер Куро-Чан / Cyborg Kuro-chan (Наоки Йокочи) [TV] [65 из 66] [без хардсаба] [RUS(int)] [1997, приключения, комедия, TVRip]

Ответить на тему
Статистика раздачи [Обновить пиров]
Размер:  17.42 GB   |    Зарегистрирован:  3 месяца 10 дней   |    Скачан:  0 раз
Сидеров:  1  [  0 KB/s  ]   Подробная статистика скачивающих
 
   
 
 
 
Автор Сообщение

torrentc.info

Создавать темы 07-Мар-2018 22:06

[Цитировать]

Кибер Куро-Чан / Cyborg Kuro-chan
Страна: Япония
Жанр: приключения, комедия
Продолжительность: 66 эпизодов по 24 минуты
Год выхода: 1997-2001
Перевод: Одноголосый закадровый (телеканал "Детский Мир")
Русские субтитры: нет
Режиссёр: Наоки Йокочи/Naoki Yokochi
Описание: Cyborg Kuro-chan (サイボーグクロちゃん Saibōgu Kurochan) — манга, созданная Наоки Ёкоти. По ней были сделаны аниме и видеоигры. Главный герой — Куро, кот-киборг, изобретение Доктора Го (злодея, который хочет завоевать мир с помощью киборгов). У Куро также есть бабушка и дедушка, они добрые люди и очень любят его. Он всегда разрывается между компанией хороших ребят и бригадой Доктора Го.
Семпл: http://www.fayloobmennik.net/3254419
Качество: WEBRip
Формат файла: MP4
Видео: AVC, 640x480, 8 bit, 1700 kbps, 25 fps
Аудио (int): RU, AAC, 2ch, 128 kbps, 48 kHz
Субтитры: Отсутствуют
UPDATE 28/02/2018: добавил серии 5 и 6 (нормальные), прошу обновить раздачу.

Подробные технические данные

ОбщееПолное имя : C:\Users\User\Desktop\КуроЧан\КуроЧан. Серия 1..mp4Формат файла : MPEG-4Профиль формата : Base MediaИдентификатор кодека : isomРазмер файла : 300 МбайтПродолжительность : 24 м.Режим общего битрейта : ПеременныйОбщий поток : 1746 Кбит/секДата кодирования : UTC 2012-04-03 20:44:34Дата пометки : UTC 2012-04-03 20:44:34Программа кодирования : Lavf53.32.100
ВидеоИдентификатор : 1Формат файла : AVCФормат файла/Информация : Advanced Video CodecПрофиль формата : Main@L3.0Параметр CABAC формата : ДаПараметр ReFrames формата : 4 кадраИдентификатор кодека : avc1Идентификатор кодека/Информация : Advanced Video CodingПродолжительность : 24 м.Битрейт : 1700 Кбит/секШирина : 640 пикселейВысота : 480 пикселейСоотношение сторон : 4:3Режим частоты кадров : ПостоянныйЧастота кадров : 25,000 кадров/секЦветовое пространство : YUVСубдискретизация насыщенности : 4:2:0Битовая глубина : 8 битТип развёртки : ПрогрессивнаяБит/(Пиксели*Кадры) : 0.221Размер потока : 281 Мбайт (94%)Библиотека кодирования : x264 core 120Настройки программы : cabac=1 / ref=2 / deblock=1:0:0 / analyse=0x1:0x131 / me=umh / subme=6 / psy=0 / mixed_ref=0 / me_range=16 / chroma_me=1 / trellis=0 / 8x8dct=0 / cqm=0 / deadzone=21,11 / fast_pskip=0 / chroma_qp_offset=0 / threads=1 / sliced_threads=0 / nr=0 / decimate=1 / interlaced=0 / bluray_compat=0 / constrained_intra=0 / bframes=2 / b_pyramid=2 / b_adapt=1 / b_bias=0 / direct=3 / weightb=1 / open_gop=0 / weightp=2 / keyint=25 / keyint_min=2 / scenecut=40 / intra_refresh=0 / rc_lookahead=25 / rc=2pass / mbtree=0 / bitrate=1700 / ratetol=1.0 / qcomp=0.60 / qpmin=7 / qpmax=51 / qpstep=4 / cplxblur=20.0 / qblur=0.5 / vbv_maxrate=1700 / vbv_bufsize=512 / nal_hrd=none / ip_ratio=1.40 / pb_ratio=1.30 / aq=1:1.00Язык : RussianДата кодирования : UTC 2012-04-03 20:44:34Дата пометки : UTC 2013-01-14 06:53:02
АудиоИдентификатор : 2Формат файла : AACФормат файла/Информация : Advanced Audio CodecПрофиль формата : LCИдентификатор кодека : 40Продолжительность : 24 м.Вид битрейта : ПеременныйБитрейт : 108 Кбит/секМаксимальный битрейт : 128 Кбит/секКаналы : 2 каналаРасположение каналов : Front: L RЧастота : 48,0 КГцМетод сжатия : С потерямиЗадержка видео : 80 мс.Размер потока : 18,5 Мбайт (6%)Язык : RussianДата кодирования : UTC 2012-04-03 20:44:34Дата пометки : UTC 2013-01-14 06:53:02

Скриншоты



[torrentc.info]_t_4555952.torrent
Торрент: Зарегистрирован ·  [ 2018-03-07 22:04 ] ·  b4b58807288631c23d865a40fabf371306a5aa3a

26 KB

Статус: проверено
Скачан: 0 раз
Размер: 17.42 GB
Оценка: 
(Голосов: 0)
Сказали спасибо: 0  Спасибо
Похожие темы
[Профиль]    [ЛС]
Показать сообщения:    
Ответить на тему

Текущее время: Сегодня 11:00

Часовой пояс: GMT + 7



Вы не можете начинать темы
Вы не можете отвечать на сообщения
Вы не можете редактировать свои сообщения
Вы не можете удалять свои сообщения
Вы не можете голосовать в опросах
Вы не можете прикреплять файлы к сообщениям
Вы можете скачивать файлы