(RnB|Funk|Electro) [WEB] Starchild & The New Romantic - Language - 2018, FLAC (tracks), lossless

Ответить на тему
Статистика раздачи [Обновить пиров]
Размер:  318 MB   |    Зарегистрирован:  6 месяцев 19 дней   |    Скачан:  0 раз

Полного источника не было: Никогда

 
   
 
 
 
Автор Сообщение

torrentc.info

Создавать темы 04-Мар-2018 01:04

[Цитировать]

Starchild & The New Romantic - Language--[img=right]https://b.radikal.ru/b27/1802/db/43d7c84b08ff.jpg[/img]
Жанр: RnB|Funk|Electro
Носитель: WEB
Страна-производитель диска (релиза): USA
Год издания: 2018
Издатель (лейбл): Ghostly International
Страна исполнителя (группы): NYC
Аудиокодек: FLAC (*.flac)
Тип рипа: tracks
Битрейт аудио: lossless
Продолжительность: 00:48:36
Источник (релизер): starchildandthenewromantic.bandcamp.com/album/language
Наличие сканов в содержимом раздачи: нет
Треклист:-1. Language
2. Mood
3. Only If U Knew
4. Hands Off
5. Hangin On
6. Black Diamond
7. Ophelia’s Room
8. Some People I Know
9. Can I Come Over?
10. Doubts
11. Good Stuff
12. Boys Choir
13. Lost Boys
14. Hand to God
-«Мы приземлились на Луну, и мы танцуем на ней», - заявляет Bryndon Cook. «Мы кричим там, где нас никто не может судить».-

Лог проверки качества

ОбщееПолное имя : /Users/user/Movies/Starchild & The New Romantic - Language (2018) [WEB FLAC]/01 - Language.flacФормат файла : FLACФормат файла/Информация : Free Lossless Audio CodecРазмер файла : 24,8 МбайтПродолжительность : 3 м. 47 с.Режим общего битрейта : ПеременныйОбщий поток : 915 Кбит/секАльбом : LanguageЧасть : 1Часть/Всего : 1Трек : LanguageТрек/Положение : 1Трек/Всего : 14Исполнитель : Starchild & The New RomanticМетка : Ghostly InternationalЖанр : Funk, Soul, RnBДата записи : 2018Обложка : YesТип обложки : Cover (front)MIME-тип обложки : image/jpegUPC : 0804297831022
АудиоФормат файла : FLACФормат файла/Информация : Free Lossless Audio CodecПродолжительность : 3 м. 47 с.Вид битрейта : ПеременныйБитрейт : 910 Кбит/секКаналы : 2 каналаРасположение каналов : Front: L RЧастота : 44,1 КГцБитовая глубина : 16 битНормализатор звука : -10,47 дБПик нормализатор звука : 0.989349Размер потока : 24,7 Мбайт (99%)Библиотека кодирования : libFLAC 1.3.2 (UTC 2017-01-01)
Режим общего битрейта : ПеременныйОбщий поток : 900 Кбит/секАльбом : LanguageЧасть : 1Часть/Всего : 1Трек : MoodТрек/Положение : 2Трек/Всего : 14Исполнитель : Starchild & The New RomanticМетка : Ghostly InternationalЖанр : Funk, Soul, RnBДата записи : 2018Обложка : YesТип обложки : Cover (front)MIME-тип обложки : image/jpegUPC : 0804297831022
АудиоФормат файла : FLACФормат файла/Информация : Free Lossless Audio CodecПродолжительность : 3 м. 2 с.Вид битрейта : ПеременныйБитрейт : 894 Кбит/секКаналы : 2 каналаРасположение каналов : Front: L RЧастота : 44,1 КГцБитовая глубина : 16 битНормализатор звука : -10,47 дБПик нормализатор звука : 0.989471Размер потока : 19,4 Мбайт (99%)Библиотека кодирования : libFLAC 1.3.2 (UTC 2017-01-01)
ОбщееПолное имя : /Users/user/Movies/Starchild & The New Romantic - Language (2018) [WEB FLAC]/03 - Only If U Knew.flacФормат файла : FLACФормат файла/Информация : Free Lossless Audio CodecРазмер файла : 23,6 МбайтПродолжительность : 3 м. 19 с.Режим общего битрейта : ПеременныйОбщий поток : 994 Кбит/секАльбом : LanguageЧасть : 1Часть/Всего : 1Трек : Only If U KnewТрек/Положение : 3Трек/Всего : 14Исполнитель : Starchild & The New RomanticМетка : Ghostly InternationalЖанр : Funk, Soul, RnBДата записи : 2018Обложка : YesТип обложки : Cover (front)MIME-тип обложки : image/jpegUPC : 0804297831022
АудиоФормат файла : FLACФормат файла/Информация : Free Lossless Audio CodecПродолжительность : 3 м. 19 с.Вид битрейта : ПеременныйБитрейт : 988 Кбит/секКаналы : 2 каналаРасположение каналов : Front: L RЧастота : 44,1 КГцБитовая глубина : 16 битНормализатор звука : -10,47 дБПик нормализатор звука : 0.989471Размер потока : 23,5 Мбайт (99%)Библиотека кодирования : libFLAC 1.3.2 (UTC 2017-01-01)
ОбщееПолное имя : /Users/user/Movies/Starchild & The New Romantic - Language (2018) [WEB FLAC]/04 - Hands Off.flacФормат файла : FLACФормат файла/Информация : Free Lossless Audio CodecРазмер файла : 10,9 МбайтПродолжительность : 1 м. 37 с.Режим общего битрейта : ПеременныйОбщий поток : 939 Кбит/секАльбом : LanguageЧасть : 1Часть/Всего : 1Трек : Hands OffТрек/Положение : 4Трек/Всего : 14Исполнитель : Starchild & The New RomanticМетка : Ghostly InternationalЖанр : Funk, Soul, RnBДата записи : 2018Обложка : YesТип обложки : Cover (front)MIME-тип обложки : image/jpegUPC : 0804297831022
АудиоФормат файла : FLACФормат файла/Информация : Free Lossless Audio CodecПродолжительность : 1 м. 37 с.Вид битрейта : ПеременныйБитрейт : 928 Кбит/секКаналы : 2 каналаРасположение каналов : Front: L RЧастота : 44,1 КГцБитовая глубина : 16 битНормализатор звука : -10,47 дБПик нормализатор звука : 0.989349Размер потока : 10,8 Мбайт (99%)Библиотека кодирования : libFLAC 1.3.2 (UTC 2017-01-01)
ОбщееПолное имя : /Users/user/Movies/Starchild & The New Romantic - Language (2018) [WEB FLAC]/05 - Hangin On.flacФормат файла : FLACФормат файла/Информация : Free Lossless Audio CodecРазмер файла : 16,5 МбайтПродолжительность : 2 м. 41 с.Режим общего битрейта : ПеременныйОбщий поток : 860 Кбит/секАльбом : LanguageЧасть : 1Часть/Всего : 1Трек : Hangin OnТрек/Положение : 5Трек/Всего : 14Исполнитель : Starchild & The New RomanticМетка : Ghostly InternationalЖанр : Funk, Soul, RnBДата записи : 2018Обложка : YesТип обложки : Cover (front)MIME-тип обложки : image/jpegUPC : 0804297831022
АудиоФормат файла : FLACФормат файла/Информация : Free Lossless Audio CodecПродолжительность : 2 м. 41 с.Вид битрейта : ПеременныйБитрейт : 853 Кбит/секКаналы : 2 каналаРасположение каналов : Front: L RЧастота : 44,1 КГцБитовая глубина : 16 битНормализатор звука : -10,47 дБПик нормализатор звука : 0.989349Размер потока : 16,4 Мбайт (99%)Библиотека кодирования : libFLAC 1.3.2 (UTC 2017-01-01)
ОбщееПолное имя : /Users/user/Movies/Starchild & The New Romantic - Language (2018) [WEB FLAC]/06 - Black Diamond.flacФормат файла : FLACФормат файла/Информация : Free Lossless Audio CodecРазмер файла : 36,6 МбайтПродолжительность : 5 м. 0 с.Режим общего битрейта : ПеременныйОбщий поток : 1021 Кбит/секАльбом : LanguageЧасть : 1Часть/Всего : 1Трек : Black DiamondТрек/Положение : 6Трек/Всего : 14Исполнитель : Starchild & The New RomanticМетка : Ghostly InternationalЖанр : Funk, Soul, RnBДата записи : 2018Обложка : YesТип обложки : Cover (front)MIME-тип обложки : image/jpegUPC : 0804297831022
АудиоФормат файла : FLACФормат файла/Информация : Free Lossless Audio CodecПродолжительность : 5 м. 0 с.Вид битрейта : ПеременныйБитрейт : 1017 Кбит/секКаналы : 2 каналаРасположение каналов : Front: L RЧастота : 44,1 КГцБитовая глубина : 16 битНормализатор звука : -10,47 дБПик нормализатор звука : 0.989410Размер потока : 36,5 Мбайт (100%)Библиотека кодирования : libFLAC 1.3.2 (UTC 2017-01-01)
ОбщееПолное имя : /Users/user/Movies/Starchild & The New Romantic - Language (2018) [WEB FLAC]/07 - Ophelia's Room.flacФормат файла : FLACФормат файла/Информация : Free Lossless Audio CodecРазмер файла : 12,3 МбайтПродолжительность : 2 м. 19 с.Режим общего битрейта : ПеременныйОбщий поток : 740 Кбит/секАльбом : LanguageЧасть : 1Часть/Всего : 1Трек : Ophelia's RoomТрек/Положение : 7Трек/Всего : 14Исполнитель : Starchild & The New RomanticМетка : Ghostly InternationalЖанр : Funk, Soul, RnBДата записи : 2018Обложка : YesТип обложки : Cover (front)MIME-тип обложки : image/jpegUPC : 0804297831022
АудиоФормат файла : FLACФормат файла/Информация : Free Lossless Audio CodecПродолжительность : 2 м. 19 с.Вид битрейта : ПеременныйБитрейт : 732 Кбит/секКаналы : 2 каналаРасположение каналов : Front: L RЧастота : 44,1 КГцБитовая глубина : 16 битНормализатор звука : -10,47 дБПик нормализатор звука : 0.989044Размер потока : 12,2 Мбайт (99%)Библиотека кодирования : libFLAC 1.3.2 (UTC 2017-01-01)
ОбщееПолное имя : /Users/user/Movies/Starchild & The New Romantic - Language (2018) [WEB FLAC]/08 - Some People I Know.flacФормат файла : FLACФормат файла/Информация : Free Lossless Audio CodecРазмер файла : 18,6 МбайтПродолжительность : 2 м. 50 с.Режим общего битрейта : ПеременныйОбщий поток : 918 Кбит/секАльбом : LanguageЧасть : 1Часть/Всего : 1Трек : Some People I KnowТрек/Положение : 8Трек/Всего : 14Исполнитель : Starchild & The New RomanticМетка : Ghostly InternationalЖанр : Funk, Soul, RnBДата записи : 2018Обложка : YesТип обложки : Cover (front)MIME-тип обложки : image/jpegUPC : 0804297831022
АудиоФормат файла : FLACФормат файла/Информация : Free Lossless Audio CodecПродолжительность : 2 м. 50 с.Вид битрейта : ПеременныйБитрейт : 911 Кбит/секКаналы : 2 каналаРасположение каналов : Front: L RЧастота : 44,1 КГцБитовая глубина : 16 битНормализатор звука : -10,47 дБПик нормализатор звука : 0.989349Размер потока : 18,5 Мбайт (99%)Библиотека кодирования : libFLAC 1.3.2 (UTC 2017-01-01)
Не забываем нажать - сказать "Спасибо"


[torrentc.info]_t_5525659.torrent
Торрент: Зарегистрирован ·  [ 2018-03-04 01:04 ] ·  ff4cf90fc05461da13cfeba43911a00d6e3a33b3

14 KB

Статус: проверено
Скачан: 0 раз
Размер: 318 MB
Оценка: 
(Голосов: 0)
Сказали спасибо: 0  Спасибо
Похожие темы
[Профиль]    [ЛС]
Показать сообщения:    
Ответить на тему

Текущее время: Сегодня 17:27

Часовой пояс: GMT + 7



Вы не можете начинать темы
Вы не можете отвечать на сообщения
Вы не можете редактировать свои сообщения
Вы не можете удалять свои сообщения
Вы не можете голосовать в опросах
Вы не можете прикреплять файлы к сообщениям
Вы можете скачивать файлы