КВН-2018.(2). Высшая лига. 1 игра 1/8 финала [18.02.2018, HDRip]

Ответить на тему
Статистика раздачи [Обновить пиров]
Размер:  1.73 GB   |    Зарегистрирован:  7 месяцев 16 дней   |    Скачан:  0 раз

Полного источника не было: Никогда

 
   
 
 
 
Автор Сообщение

torrentc.info

Создавать темы 28-Фев-2018 19:31

[Цитировать]

КВН-2018.(2). Высшая лига. 1 игра 1/8 финала
Дата/Год выхода: 18.02.2018
Страна: Россия
Продолжительность: 01:46:51
Перевод: Не требуется
Русские субтитры: нет
Оригинальная аудиодорожка: русский
Телеканал: ОРТ
Описание: Год выхода: 2018
Страна: Россия
Производство: телекомпания "АМиК"
Ведущий: Александр Масляков
Жанр: ТВ-шоу, юмор
Продолжительность: 01:46:51
Доп. информация: Играли: Планета Сочи, Сборная БМГЦ, Сборная Великобритании, Сборная Забайкальского края, Театр уральского зрителя
качество: HDRip
формат: MP4
Видео: 1920x1080 (16:9), 25 fps, mp41
Аудио: 48 kHz, АС3, 2 ch, ~155.00 kbps

Скриншоты

Mediainfo

General
Complete name : КВН Высшая лига Первая 1_8 (18.02.2018) ИГРА ЦЕЛИКОМ Full HD.mp4
Format : MPEG-4
Format profile : Base Media
Codec ID : isom (isom/iso2/avc1/mp41)
File size : 1.73 GiB
Duration : 1 h 46 min
Overall bit rate : 2 319 kb/s
Writing application : Lavf58.9.100
Video
ID : 1
Format : AVC
Format/Info : Advanced Video Codec
Format profile : High@L4
Format settings : CABAC / 3 Ref Frames
Format settings, CABAC : Yes
Format settings, ReFrames : 3 frames
Codec ID : avc1
Codec ID/Info : Advanced Video Coding
Duration : 1 h 46 min
Bit rate : 2 187 kb/s
Width : 1 920 pixels
Height : 1 080 pixels
Display aspect ratio : 16:9
Frame rate mode : Constant
Frame rate : 25.000 FPS
Color space : YUV
Chroma subsampling : 4:2:0
Bit depth : 8 bits
Scan type : Progressive
Bits/(Pixel*Frame) : 0.042
Stream size : 1.63 GiB (94%)
Color range : Limited
Color primaries : BT.709
Transfer characteristics : BT.709
Matrix coefficients : BT.709
Audio
ID : 2
Format : AAC
Format/Info : Advanced Audio Codec
Format profile : LC
Codec ID : mp4a-40-2
Duration : 1 h 46 min
Bit rate mode : Constant
Bit rate : 126 kb/s
Channel(s) : 2 channels
Channel positions : Front: L R
Sampling rate : 44.1 kHz
Frame rate : 43.066 FPS (1024 SPF)
Compression mode : Lossy
Stream size : 96.0 MiB (5%)
Default : Yes
Alternate group : 1


[torrentc.info]_t_5523213.torrent
Торрент: Зарегистрирован ·  [ 2018-02-28 19:31 ] ·  b81f7a17ba37f264ecdb93bb487ed05935e36577

18 KB

Статус: проверено
Скачан: 0 раз
Размер: 1.73 GB
Оценка: 
(Голосов: 0)
Сказали спасибо: 0  Спасибо
Похожие темы
[Профиль]    [ЛС]
Показать сообщения:    
Ответить на тему

Текущее время: Сегодня 12:20

Часовой пояс: GMT + 7



Вы не можете начинать темы
Вы не можете отвечать на сообщения
Вы не можете редактировать свои сообщения
Вы не можете удалять свои сообщения
Вы не можете голосовать в опросах
Вы не можете прикреплять файлы к сообщениям
Вы можете скачивать файлы