Лица, деревни / Visages Villages / Faces Places (Аньес Варда / Agnès Varda, ДжейАр / JR) [2017, Франция, документальный, DVDRip-AVC] + Sub Rus, Eng, Fre + Original Fra

Ответить на тему
Статистика раздачи [Обновить пиров]
Размер:  2.72 GB   |    Зарегистрирован:  6 месяцев 26 дней   |    Скачан:  2 раза

Полного источника не было: 6 месяцев 17 дней

 
   
 
 
 
Автор Сообщение

torrentc.info

Создавать темы 20-Фев-2018 20:14

[Цитировать]

Лица, деревни / Visages Villages / Faces Places
Страна: Франция
Жанр: документальный
Год выхода: 2017
Продолжительность: 01:29:24
Перевод: Субтитры (indy91)
Субтитры: русские, английские, французские
Оригинальная аудиодорожка: французский
Режиссер: Аньес Варда / Agnès Varda, ДжейАр / JR
В ролях: Аньес Варда / Agnès Varda, ДжейАр / JR, Жан-Люк Годар / Jean-Luc Godard, Жан-Поль Божон / Jean-Paul Beaujon, Амори Босси / Amaury Bossy, Ив Булен / Yves Boulen, Жанин Карпентье / Jeannine Carpentier
Описание: Фильм-путешествие по французским окраинам расскажет о красоте окружающего мира, случайных и неожиданных встречах, а ещё — о дружбе, выросшей из сотрудничества двух совершенно разных людей: режиссёра Аньес Варда и фотографа ДжейАра.
Доп. информация: Премьера фильма состоялась на Каннском фестивале в 2017-м году во внеконкурсной программе. В Каннах фильм получил приз Golden Eye как лучший документальный фильм фестиваля, а также награду Palme de Whiskers - лучшему коту фестиваля. Фильм номинирован на премию "Оскар" в категории "Лучший документальный фильм". Фильм выходил в прокат во Франции, Финляндии, США, Израиле, Голландии, Бразилии, Аргентине, Германии, Испании и многих других странах. Был показан на фестивалях в Мельбурне, Теллурайде, Торонто, Хельсинки, Рейкьявике, Нью-Йорке и многих других. Другие награды картины:
Alliance of Women Film Journalists (2018):
AWFJ EDA Award (Best Documentary);
EDA Special Mention Award (Actress Defying Age and Ageism - Agnès Varda).
Austin Film Critics Association (2017):
Austin Film Critics Award (Best Documentary).
Boston Online Film Critics Association (2017):
BOFCA Award (Best Documentary).
Cinema Eye Honors Awards, US (2018):
Cinema Eye Honors Award (The Unforgettables - Agnès Varda).
Denver Film Critics Society (2018):
DFCS Award (Best Documentary).
Haifa International Film Festival (2017):
Golden Anchor Award (Best Film).
International Cinephile Society Awards (2018):
ICS Award (Best Documentary).
Los Angeles Film Critics Association Awards (2017):
LAFCA Award (Best Documentary/Non-Fiction Film).
https://www.kinopoisk.ru/film/litsa-derevni-2017-976612/
http://www.imdb.com/title/tt5598102/?ref_=ttawd_awd_tt
Особая благодарность daft-digger за предоставление файла.
Сэмпл: http://sendfile.su/1399427
Качество видео: DVDRip-AVC
Формат файла: MKV
Видео: AVC, Advanced Video Codec, 1024x554 (1.85:1), 3 900 Kbps, 25.000 fps
Аудио: AC-3, Audio Coding 3, 6 channels, 48.0 KHz, 31.250 fps (1536 spf)
Формат файла субтитров: softsub (SRT)

MediaInfo

GeneralUnique ID : 216742572195219417797600235487740395600 (0xA30F19DB3AC86C1795ABFD2F2C4D8050)Complete name : C:\Users\Максим\Downloads\Visages Villages.mkvFormat : MatroskaFormat version : Version 4 / Version 2File size : 2.72 GiBDuration : 1h 29mnOverall bit rate : 4 360 KbpsMovie name : Visages Villages (2017) - Agnès Varda & JREncoded date : UTC 2018-02-16 17:27:49Writing application : mkvmerge v6.0.0 ('Coming Up For Air') built on Jan 20 2013 09:52:00Writing library : libebml v1.3.0 + libmatroska v1.4.0Source Video/Audio/Sub : BD FRA Le PacteTeam Encode : VXS
VideoID : 1Format : AVCFormat/Info : Advanced Video CodecFormat profile : High@L3.1Format settings, CABAC : YesFormat settings, ReFrames : 8 framesCodec ID : V_MPEG4/ISO/AVCDuration : 1h 29mnBit rate : 3 900 KbpsWidth : 1 024 pixelsHeight : 554 pixelsDisplay aspect ratio : 1.85:1Frame rate mode : ConstantFrame rate : 25.000 fpsColor space : YUVChroma subsampling : 4:2:0Bit depth : 8 bitsScan type : ProgressiveBits/(Pixel*Frame) : 0.275Stream size : 2.39 GiB (88%)Title : -VXS @ 3896 kbpsWriting library : x264 core 152 r2851 ba24899Encoding settings : cabac=1 / ref=8 / deblock=1:-3:-3 / analyse=0x3:0x133 / me=umh / subme=11 / psy=1 / psy_rd=1.08:0.05 / mixed_ref=1 / me_range=32 / chroma_me=1 / trellis=2 / 8x8dct=1 / cqm=0 / deadzone=21,11 / fast_pskip=0 / chroma_qp_offset=-3 / threads=24 / lookahead_threads=4 / sliced_threads=0 / nr=0 / decimate=0 / interlaced=0 / bluray_compat=0 / constrained_intra=0 / bframes=10 / b_pyramid=2 / b_adapt=2 / b_bias=0 / direct=3 / weightb=1 / open_gop=0 / weightp=2 / keyint=250 / keyint_min=25 / scenecut=40 / intra_refresh=0 / rc_lookahead=50 / rc=2pass / mbtree=0 / bitrate=3900 / ratetol=1.0 / qcomp=0.65 / qpmin=0 / qpmax=69 / qpstep=4 / cplxblur=20.0 / qblur=0.5 / vbv_maxrate=17500 / vbv_bufsize=17500 / nal_hrd=none / filler=0 / ip_ratio=1.20 / pb_ratio=1.15 / aq=3:0.75Default : YesForced : NoColor range : LimitedColor primaries : BT.709Transfer characteristics : BT.709Matrix coefficients : BT.709Statistics Tags Issue : mkvmerge v18.0.0 ('Apricity') 64-bit 2017-12-11 23:47:22 / mkvmerge v6.0.0 ('Coming Up For Air') built on Jan 20 2013 09:52:00 2018-02-16 17:27:49FromStats_BitRate : 3895582FromStats_Duration : 01:29:24.040000000FromStats_FrameCount : 134101FromStats_StreamSize : 2612007461
AudioID : 2Format : AC-3Format/Info : Audio Coding 3Mode extension : CM (complete main)Format settings, Endianness : BigCodec ID : A_AC3Duration : 1h 29mnBit rate mode : ConstantBit rate : 448 KbpsChannel(s) : 6 channelsChannel positions : Front: L C R, Side: L R, LFESampling rate : 48.0 KHzFrame rate : 31.250 fps (1536 spf)Compression mode : LossyStream size : 286 MiB (10%)Title : 5.1 @ 448 kbpsLanguage : FrenchDefault : YesForced : NoStatistics Tags Issue : mkvmerge v18.0.0 ('Apricity') 64-bit 2017-12-11 23:47:22 / mkvmerge v6.0.0 ('Coming Up For Air') built on Jan 20 2013 09:52:00 2018-02-16 17:27:49FromStats_BitRate : 448000FromStats_Duration : 01:29:24.064000000FromStats_FrameCount : 167627FromStats_StreamSize : 300387584
Text #1ID : 3Format : PGSMuxing mode : zlibCodec ID : S_HDMV/PGSCodec ID/Info : Picture based subtitle format used on BDs/HD-DVDsTitle : SDH PGS (1920x1080px)Language : FrenchDefault : NoForced : NoStatistics Tags Issue : mkvmerge v18.0.0 ('Apricity') 64-bit 2017-12-11 23:47:22 / mkvmerge v6.0.0 ('Coming Up For Air') built on Jan 20 2013 09:52:00 2018-02-16 17:27:49FromStats_BitRate : 45159FromStats_Duration : 01:29:03.720000000FromStats_FrameCount : 2987FromStats_StreamSize : 30165118
Text #2ID : 4Format : UTF-8Codec ID : S_TEXT/UTF8Codec ID/Info : UTF-8 Plain TextTitle : русскийLanguage : RussianDefault : YesForced : No
Text #3ID : 5Format : UTF-8Codec ID : S_TEXT/UTF8Codec ID/Info : UTF-8 Plain TextTitle : английскийLanguage : EnglishDefault : NoForced : No

Скриншот c названием фильма

Скриншоты

Фрагмент субтитров

2
00:02:42,241 --> 00:02:44,598
Мы не встретились
на дороге.
3
00:02:48,224 --> 00:02:51,001
Мы не встретились на
автобусной остановке.
4
00:02:53,143 --> 00:02:55,679
Не вижу. Когда придёт
следующий?
5
00:02:55,729 --> 00:02:56,879
Через 3 минуты.
6
00:02:59,121 --> 00:03:01,601
Слишком долго ждать.
Пойду пешком.
7
00:03:03,447 --> 00:03:05,796
Мы не встретились в пекарне.
8
00:03:06,504 --> 00:03:08,011
- Здравствуйте.
- Здравствуйте, месье.
9
00:03:08,061 --> 00:03:10,684
- Два шоколадных эклера, пожалуйста.
- Их только что купили.
10
00:03:10,734 --> 00:03:13,787
- Очень жаль. Спасибо, до свидания.
- Спасибо. До свидания, месье.
11
00:03:16,247 --> 00:03:17,841
Сколько с меня?
12
00:03:17,891 --> 00:03:19,080
5 евро, пожалуйста.
13
00:03:24,881 --> 00:03:26,641
Мы не встретились
14
00:03:26,801 --> 00:03:28,251
на танцполе.


[torrentc.info]_t_5521911.torrent
Торрент: Зарегистрирован ·  [ 2018-02-20 20:14 ] ·  e7a1aeb059c3e0b6b3c9c1d7c06dce53db368109

14 KB

Статус: проверено
Скачан: 2 раз
Размер: 2.72 GB
Оценка: 
(Голосов: 0)
Сказали спасибо: 0  Спасибо
Похожие темы
[Профиль]    [ЛС]
Показать сообщения:    
Ответить на тему

Текущее время: Сегодня 08:52

Часовой пояс: GMT + 7



Вы не можете начинать темы
Вы не можете отвечать на сообщения
Вы не можете редактировать свои сообщения
Вы не можете удалять свои сообщения
Вы не можете голосовать в опросах
Вы не можете прикреплять файлы к сообщениям
Вы можете скачивать файлы