[TR24][OF] Miracle - The Strife of Love in a Dream - 2018 (Electronic, New Wave, Synthwave)

Ответить на тему
Статистика раздачи [Обновить пиров]
Размер:  888 MB   |    Зарегистрирован:  9 месяцев 20 дней   |    Скачан:  4 раза

Полного источника не было: 4 месяца 27 дней

 
   
 
 
 
Автор Сообщение

torrentc.info

Создавать темы 18-Фев-2018 02:07

[Цитировать]

Miracle / The Strife of Love in a Dream
Формат файла записи/Источник записи: [TR24][OF]
Наличие водяных знаков: Нет
Год издания/переиздания диска: 2018
Жанр: Electronic, New Wave, Synthwave
Издатель (лейбл): Relapse Records
Продолжительность: 00:42:49
Наличие сканов в содержимом раздачи: Front
Источник (релизер): 7digital
Формат файла: FLAC (*.flac)
Тип рипа: tracks
Разрядность: 24/96
Формат файла: PCM
Количество каналов: 2.0
Треклист:
1. The Parsifal Gate
2. Light Mind
3. Night Sides
4. Sulfur
5. The Seventeen Nineties
6. Dreamours
7. Mind Environment
8. Angelix

Лог проверки качества

foobar2000 1.1.10 / Dynamic Range Meter 1.1.1log date: 2018-02-17 12:02:23
--------------------------------------------------------------------------------Analyzed: Miracle / The Strife of Love in a Dream--------------------------------------------------------------------------------
DR Peak RMS Duration Track--------------------------------------------------------------------------------DR6 -1.60 dB -9.25 dB 6:39 ?-The Parsifal GateDR6 -1.55 dB -8.95 dB 4:49 ?-Light MindDR6 -1.60 dB -10.35 dB 4:49 ?-Night SidesDR7 -1.60 dB -10.40 dB 5:32 ?-SulfurDR6 -1.60 dB -10.79 dB 5:11 ?-The Seventeen NinetiesDR6 -1.60 dB -9.11 dB 3:52 ?-DreamoursDR7 -1.60 dB -10.87 dB 3:09 ?-Mind EnvironmentDR6 -1.60 dB -10.22 dB 8:48 ?-Angelix--------------------------------------------------------------------------------
Number of tracks: 8Official DR value: DR6
Samplerate: 96000 HzChannels: 2Bits per sample: 24Bitrate: 2782 kbpsCodec: FLAC================================================================================

Состав

Daniel O'Sullivan, Steve Moore

Об исполнителе (группе)

Southern hardcore rapper Miracle hails from Augusta, GA., where he was discovered while working as a street rep promoting fellow Augusta native Pastor Troy. Miracle signed with the Sound of Atlanta label and issued his debut single, "Bounce," at the very end of 1999. It became a regional hit in the South, setting the stage for the release of his self-titled debut album in the spring of 2000.
-Раздаю до первых 5-ти скачавших, на раздачи не возвращаюсь...-


[torrentc.info]_t_5522169.torrent
Торрент: Зарегистрирован ·  [ 2018-02-18 02:07 ] ·  1f44a3dbf2b972ab3a7f53456fe38c40513f883e

18 KB

Статус: проверено
Скачан: 4 раз
Размер: 888 MB
Оценка: 
(Голосов: 0)
Сказали спасибо: 0  Спасибо
Похожие темы
[Профиль]    [ЛС]
Показать сообщения:    
Ответить на тему

Текущее время: Сегодня 22:21

Часовой пояс: GMT + 7



Вы не можете начинать темы
Вы не можете отвечать на сообщения
Вы не можете редактировать свои сообщения
Вы не можете удалять свои сообщения
Вы не можете голосовать в опросах
Вы не можете прикреплять файлы к сообщениям
Вы можете скачивать файлы