(Ethereal / Modern Classical) [WEB] Ele Ypsis - Eksü (Eksu) - 2013, FLAC (tracks), lossless

Ответить на тему
Статистика раздачи [Обновить пиров]
Размер:  219 MB   |    Зарегистрирован:  4 месяца 6 дней   |    Скачан:  0 раз

Полного источника не было: Никогда

 
   
 
 
 
Автор Сообщение

torrentc.info

Создавать темы 17-Фев-2018 20:24

[Цитировать]

Ele Ypsis / Eksü
Жанр: Ethereal / Modern Classical
Носитель: WEB
Год издания: 2013
Издатель (лейбл): Self-Released
Номер по каталогу: none
Страна исполнителя (группы): Belgium (City of Brussels)
Аудиокодек: FLAC (*.flac)
Тип рипа: tracks
Битрейт аудио: lossless
Продолжительность: 00:39:08
Источник (релизер): bandcamp.com
Наличие сканов в содержимом раздачи: нет
Трек-лист:
01. Fond de Mer. (02:31)
02. Outra. (04:38)
03. Fantaise. (04:46)
04. Versaté. (05:46)
05. Mysth. (05:24)
06. Aura. (06:08)
07. Ambre. (04:06)
08. Novi Huma. (05:49)

Лог проверки качества

-----------------------
DON'T MODIFY THIS FILE
-----------------------
PERFORMER: auCDtect Task Manager, ver. 1.6.0 RC1 build 1.6.0.1Copyright (c) 2008-2010 y-soft. All rights reservedhttp://y-soft.org
ANALYZER: auCDtect: CD records authenticity detector, version 0.8.2Copyright (c) 2004 Oleg Berngardt. All rights reserved.Copyright (c) 2004 Alexander Djourik. All rights reserved.
FILE: 01. Fond de Mer.flac Size: 13177519 Hash: 1C3DF48034F6093E16E79129AFCEA70F Accuracy: -m0 Conclusion: CDDA 43% Signature: A6C18E4B3E9A4FF7C05F43EB087FD704866B9422FILE: 02. Outra.flac Size: 28096268 Hash: 7A07BE76405DD8A27B47FBF186F9A99C Accuracy: -m0 Conclusion: CDDA 100% Signature: 328166B014F203AAA00FB94D1F41F6631BEBAF93FILE: 03. Fantaise.flac Size: 24896748 Hash: 463EB615BEBF8C28DB189750B9F00DA8 Accuracy: -m0 Conclusion: CDDA 49% Signature: 592F5EAAF1B3F5774ED53C6BAD7BC9F68C138005FILE: 04. Versaté.flac Size: 35045680 Hash: 4F7695F3572EDF665C0A0716BB4AE36A Accuracy: -m0 Conclusion: CDDA 100% Signature: BC73A44988CD86DC739C2BD047B3B071843B996DFILE: 05. Mysth.flac Size: 30192277 Hash: 4810DCD2528A0C25B9FEED0A4F12DEBD Accuracy: -m0 Conclusion: CDDA 54% Signature: E952FB985F6B38F4322FED441C03B14C9C693B0EFILE: 06. Aura.flac Size: 37956360 Hash: FCED57DADF8C4E3BAFFD92B42FB3196A Accuracy: -m0 Conclusion: CDDA 100% Signature: C97F47702E72103D605FC51BF1A7572BCFF17341FILE: 07. Ambre.flac Size: 22256983 Hash: DF2D31282AC4AB4A5A09F191EE49C808 Accuracy: -m0 Conclusion: CDDA 87% Signature: ACBB05B4B302F6CEF5D0523604754349CDCD0964FILE: 08. Novi Huma.flac Size: 34628801 Hash: 85196B9CDCD91080534CD9AAEEBCE201 Accuracy: -m0 Conclusion: CDDA 100% Signature: 46D110AA9CC39C370D206E97ECF113ADC5103532

Замер динамического диапазона

foobar2000 1.3.4 / Замер динамического диапазона (DR) 1.1.1Дата отчёта: 2018-02-14 17:06:03
--------------------------------------------------------------------------------Анализ: Ele Ypsis / Eksü--------------------------------------------------------------------------------
DR Пики RMS Продолжительность трека--------------------------------------------------------------------------------DR11 -1.58 дБ -16.05 дБ 2:31 01-Fond de MerDR10 -0.30 дБ -15.30 дБ 4:38 02-OutraDR11 -4.89 дБ -18.74 дБ 4:46 03-FantaiseDR10 0.00 дБ -14.08 дБ 5:46 04-VersatéDR9 -0.26 дБ -12.36 дБ 5:24 05-MysthDR7 -0.30 дБ -11.97 дБ 6:08 06-AuraDR11 -0.76 дБ -14.60 дБ 4:06 07-AmbreDR10 -0.30 дБ -13.25 дБ 5:49 08-Novi Huma--------------------------------------------------------------------------------
Количество треков: 8Реальные значения DR: DR10
Частота: 48000 ГцКаналов: 2Разрядность: 16Битрейт: 790 кбит/сКодек: FLAC================================================================================
-

Доп. информация

EKSÜ is the result of 4 years of collaboration between singer and composer Laure Le Prunenec and composer and producer Stélian Derenne.
The 8 tracks presented on this album made it trough the selection, and provided to you freshly remixed and remastered to give you a taste of the forthcoming projects of Ele Ypsis. (c)

Состав

Laure Le Prunenec - vocal composition and performance.
Derenne Stélian - orchestral composition, production and post-production.


[torrentc.info]_t_5521011.torrent
Торрент: Зарегистрирован ·  [ 2018-02-17 20:21 ] ·  db039e986e52ccf9259f68cb4d2887ea423bf526

18 KB

Статус: проверено
Скачан: 0 раз
Размер: 219 MB
Оценка: 
(Голосов: 0)
Сказали спасибо: 0  Спасибо
Похожие темы
[Профиль]    [ЛС]
Показать сообщения:    
Ответить на тему

Текущее время: Сегодня 00:20

Часовой пояс: GMT + 7



Вы не можете начинать темы
Вы не можете отвечать на сообщения
Вы не можете редактировать свои сообщения
Вы не можете удалять свои сообщения
Вы не можете голосовать в опросах
Вы не можете прикреплять файлы к сообщениям
Вы можете скачивать файлы