Последний глоток (Георгий Богуславский) [2011, Россия, авторская анимация, WEBRip]

Ответить на тему
Статистика раздачи [Обновить пиров]
Размер:  237 MB   |    Зарегистрирован:  6 месяцев 5 дней   |    Скачан:  1 раз

Полного источника не было: 11 дней

 
   
 
 
 
Автор Сообщение

torrentc.info

Создавать темы 13-Фев-2018 21:21

[Цитировать]

[img=right]https://d.radikal.ru/d39/1802/f6/87ba221c7edc.jpg[/img]
Последний глоток
Страна: Россия
Жанр: авторская анимация
Год выхода: 2011
Продолжительность: 00:14:38
Перевод: не требуется
Субтитры: нет
Режиссёр: Георгий Богуславский
Описание: Пилот сбитого самолёта держит путь пешком через пустыню...
Доп. информация: Специальный приз жюри за короткий метр - Фестиваль анимации SICAF (2012)
2-я премия в номинации "Анимационный фильм" - Фестиваль дебютных фильмов "Святая Анна" (2012)
Гран-при в номинации "Анимация" - Фестиваль визуальных искусств "Орлёнок" (2012)
Качество видео: WEBRip
Формат файла: AVI
Видео: 2128 kbps, 720х480 (3:2), 25.000 fps, MPEG-4 Visual (XviD)
Аудио: 128 kbps, 44.1 kHz, 2 channels, MPEG Audio (MP3)

MediaInfo

GeneralComplete name : Последний глоток (2011).aviFormat : AVIFormat/Info : Audio Video InterleaveFile size : 237 MiBDuration : 14mn 38sOverall bit rate : 2 265 KbpsWriting library : VirtualDub build 35491/release
VideoID : 0Format : MPEG-4 VisualFormat profile : Advanced Simple@L4Format settings, BVOP : 2Format settings, QPel : NoFormat settings, GMC : No warppointsFormat settings, Matrix : Default (H.263)Codec ID : XVIDCodec ID/Hint : XviDDuration : 14mn 38sBit rate : 2 128 KbpsWidth : 720 pixelsHeight : 480 pixelsDisplay aspect ratio : 3:2Frame rate : 25.000 fpsStandard : NTSCColor space : YUVChroma subsampling : 4:2:0Bit depth : 8 bitsScan type : ProgressiveCompression mode : LossyBits/(Pixel*Frame) : 0.246Stream size : 223 MiB (94%)Writing library : XviD 64
AudioID : 1Format : MPEG AudioFormat version : Version 1Format profile : Layer 3Mode : Joint stereoCodec ID : 55Codec ID/Hint : MP3Duration : 14mn 38sBit rate mode : ConstantBit rate : 128 KbpsChannel(s) : 2 channelsSampling rate : 44.1 KHzCompression mode : LossyStream size : 13.4 MiB (6%)Alignment : Split accross interleavesInterleave, duration : 40 ms (1.00 video frame)Interleave, preload duration : 501 ms

Скриншот c названием фильма

[img]https://c.radikal.ru/c00/1802/1b/abb931fda70dt.jpg[/img]


[torrentc.info]_t_5517978.torrent
Торрент: Зарегистрирован ·  [ 2018-02-13 21:21 ] ·  3b2d31cafad1a01bd41781ee992813d62753b2ac

19 KB

Статус: проверено
Скачан: 1 раз
Размер: 237 MB
Оценка: 
(Голосов: 0)
Сказали спасибо: 0  Спасибо
Похожие темы
[Профиль]    [ЛС]
Показать сообщения:    
Ответить на тему

Текущее время: Сегодня 07:00

Часовой пояс: GMT + 7



Вы не можете начинать темы
Вы не можете отвечать на сообщения
Вы не можете редактировать свои сообщения
Вы не можете удалять свои сообщения
Вы не можете голосовать в опросах
Вы не можете прикреплять файлы к сообщениям
Вы можете скачивать файлы