Сон в Иванову ночь (Елена Кокушкина) [2005, комедия, WEB-DLRip] Саратовский Театр русской комедии

Ответить на тему
Статистика раздачи [Обновить пиров]
Размер:  1.09 GB   |    Зарегистрирован:  4 месяца 4 дня   |    Скачан:  0 раз

Полного источника не было: Никогда

 
   
 
 
 
Автор Сообщение

torrentc.info

Создавать темы 13-Фев-2018 21:21

[Цитировать]

Сон в Иванову ночь Название театра: Саратовский Театр русской комедии.
Год выхода: 2005.
Жанр: комедия.
Продолжительность: 01:08:59.
Режиссер: Елена Кокушкина.
Действующие лица и исполнители:
Тезей, герцог афинский; Оберон, царь фей и эльфов - Александр Новохатский,
Ипполита, царица амазонок, обрученная с Тезеем; Титания, царица фей и эльфов - Лариса Баканина,
Эгей, отец Гермии - Сергей Литовченко,
Лизандр, влюблённыЙ в Гермию - Алексей Кашинский,
Деметрий, влюблённыЙ в Гермию - Сергей Игнашев,
Филострат, распорядитель увеселений при дворе Тезея; Пак, или Плутишка Робин, маленький эльф - Д. Давыдов,
Гермия, дочь Эгея, влюблённая в Лизандра - Людмила Балташева,
Елена, влюблённая в Деметрия - Елена Пузанова,
Пирам - заслуженный артист России Константин Тополага,
Фисби - М. Абрамов,
Лев - Михаил Юдин,
Стера - Д. Давыдов,
Свита Тезея и Ипполита - М. Абрамов, Лариса Баканина, Е. Быкова, Юлия Лазарева, А. Филоненко, Елена Шибарова, Владимир Шибаров, Марина Стаханова,
Эльфа - Е. Быкова,
Актеры, занятые в интермедии - М. Абрамов, Д. Давыдов, заслуженный артист России Константин Тополага, Михаил Юдин.
Описание:
По пьесе Уильяма Шекспира "Сон в летнюю ночь".
Дополнительная информация:
Страна: Россия .
Автор: Уильям Шекспир.
[img]https://a.radikal.ru/a14/1801/68/5629053c2f1d.jpg[/img]

Рип sharky.

Качество видео:...WEB-DLRip
Формат файла:.................AVI
Видео:..704x528 (1.33:1), 25 fps, XviD build 47 ~2119 kbps avg, 0.23 bit/pixel
Аудио:..44.100 kHz, MPEG Layer 3, 2 ch, ~128.00 kbps avg

Отчет Media Info

General
Complete name : Son.v.Ivanovu.noch_Saratovskij.teatr.russkoj.komedii.2005.XviD.WEB-DLRip.fenixclub.avi
Format : AVI
Format/Info : Audio Video Interleave
File size : 1.09 GiB
Duration : 1h 8mn
Overall bit rate : 2 257 Kbps
Writing application : VirtualDubMod 1.5.10.2 (build 2540/release)
Writing library : VirtualDubMod build 2540/release
Video
ID : 0
Format : MPEG-4 Visual
Format profile : Advanced Simple@L5
Format settings, BVOP : 1
Format settings, QPel : No
Format settings, GMC : No warppoints
Format settings, Matrix : Default (H.263)
Codec ID : XVID
Codec ID/Hint : XviD
Duration : 1h 8mn
Bit rate : 2 120 Kbps
Width : 704 pixels
Height : 528 pixels
Display aspect ratio : 4:3
Frame rate : 25.000 fps
Color space : YUV
Chroma subsampling : 4:2:0
Bit depth : 8 bits
Scan type : Progressive
Compression mode : Lossy
Bits/(Pixel*Frame) : 0.228
Stream size : 1.02 GiB (94%)
Writing library : XviD 1.2.0.dev47 (UTC 2006-11-01)
Audio
ID : 1
Format : MPEG Audio
Format version : Version 1
Format profile : Layer 3
Codec ID : 55
Codec ID/Hint : MP3
Duration : 1h 8mn
Bit rate mode : Constant
Bit rate : 128 Kbps
Channel(s) : 2 channels
Sampling rate : 44.1 KHz
Compression mode : Lossy
Stream size : 63.2 MiB (6%)
Alignment : Split accross interleaves
Interleave, duration : 40 ms (1.00 video frame)
Interleave, preload duratio : 500 ms
Writing library : LAME3.97
Encoding settings : -m s -V 4 -q 2 -lowpass 17 -b 128

Скриншоты




[torrentc.info]_t_5516599.torrent
Торрент: Зарегистрирован ·  [ 2018-02-13 21:21 ] ·  1c2d0e6f3c458dcf97a19ba07e5c04b9bee91934

11 KB

Статус: проверено
Скачан: 0 раз
Размер: 1.09 GB
Оценка: 
(Голосов: 0)
Сказали спасибо: 0  Спасибо
Похожие темы
[Профиль]    [ЛС]
Показать сообщения:    
Ответить на тему

Текущее время: Сегодня 10:56

Часовой пояс: GMT + 7



Вы не можете начинать темы
Вы не можете отвечать на сообщения
Вы не можете редактировать свои сообщения
Вы не можете удалять свои сообщения
Вы не можете голосовать в опросах
Вы не можете прикреплять файлы к сообщениям
Вы можете скачивать файлы