Битва на Сомме 1916. Взгляд обеих сторон (3 серии из 3) / The Somme 1916: From Both Sides of the Wire (Аластер Лоуренс / Alastair Laurence) [2016, Документальный, война, история, SATRip]

Ответить на тему
Статистика раздачи [Обновить пиров]
Размер:  2.11 GB   |    Зарегистрирован:  9 дней   |    Скачан:  0 раз

Полного источника не было: Никогда

 
   
 
 
 
Автор Сообщение

torrentc.info

Создавать темы 13-Фев-2018 20:14

[Цитировать]

Битва на Сомме 1916. Взгляд обеих сторон (3 серии из 3) / The Somme 1916: From Both Sides of the Wire
Дата/Год выхода: 2016
Страна: Великобритания, British Broadcasting Corporation (BBC)
Жанр: Документальный, война, история
Продолжительность: 3 х ~ 00:50:00
Перевод: Профессиональный (одногоголосый закадровый)
Режиссер: Аластер Лоуренс / Alastair Laurence
Телеканал: 365 дней
Описание: 1 июля 1916 года на берегах реки Сомма, в ходе Первой мировой войны, началась самая кровопролитная битва в истории человечества. Военный историк Питер Бартон посетит места сражений и объяснит роковые ошибки первого дня боевых действий, в результате которых погибли более двадцати тысяч британских солдат. Он расскажет не только о просчетах британцев, но и о сильных сторонах немцев, которые с умом использовали географические особенности местности, прослушивали телефонные разговоры и получали важную информацию от пленных и перебежчиков.
Имея доступ к немецким и британским архивам, Питер Бартон пересматривает одну из самых кровопролитных битв Первой мировой войны.
Доп. информация: Авторство релиза - alf62

качество: SATRip
формат: AVI
Видео: 720x416 (1.73:1), 25 fps, XviD build 73 ~1799 kbps avg, 0.24 bit/pixel
Аудио: 48 kHz, AC3 Dolby Digital, 2/0 (L,R) ch, ~192.00 kbps avg

Список выпусков/серий

1. День первый / First Day / Erster Tag
Питер Бартон исследует события, предшествующие печально известному первому дню кровавого наступления. Он объясняет неудачи, которые привели к гибели более чем 20 000 британских солдат. Бартон утверждает, что для лучшего понимания тех событий, необходимо понять не только, что делали англичане, но и то, что делал их враг.
Немцы умело искусно использовали ландшафт Соммы, чтобы максимизировать потери среди своего врага. Основываясь на исследованиях в немецких архивах, Бартон показывает, насколько немцы знали о планах наступления союзников из захваченных документов, допросов захваченных британских пленных и дезертиров.
2. Глубокая защита / Defence in Depth / Verteidigung in der Tiefe
Питер Бартон рассказывает о втором этапе битвы, с середины июля до середины сентября 1916 года.
Как продвижение союзников, которое должно было занять несколько недель, длилось месяцами и приводило к еще большим потерям на поле битвы при Сомме.
Медленность продвижения союзников в этот период, Бартон объясняет появлением новой тактики разработанной немцами - углубленной защитой.
3. Конец игры / End Game / End Spiel
Питер Бартон завершает рассказ об истории битвы в последние месяцы кампании.
Он рассказывает, как немецкая революция в тактике, начатая летом 1916 года, продолжалась в течение этого периода, чтобы сорвать планы союзников. Это имело глубокие трагические последствия для союзников в Первой мировую войне.
Также Бартон утверждает, что битва при Сомма закончилась не зимой 1916 года, а весной 1917 года. И он приходит к выводу, что британцы не добились победы.

MediaInfo

ОбщееПолное имя : E:\Запись\Битва на Сомме 1916. Взгляд обеих сторон\BBC.Битва.на.Сомме.1916.(3.серии.из.3).2016.XviD.SATRip.alf62\Битва.на.Сомме.1916.(1.серия).День.первый.2016.XviD.SATRip.alf62.aviФормат файла : AVIФормат файла/Информация : Audio Video InterleaveРазмер файла : 725 МбайтПродолжительность : 50 м.Общий поток : 2001 Кбит/секПрограмма кодирования : VirtualDubMod 1.5.10.3 | www.virtualdub-fr.org || (build 2550/release)Библиотека кодирования : VirtualDubMod build 2550/release
ВидеоИдентификатор : 0Формат файла : MPEG-4 VisualПрофиль формата : Advanced Simple@L5Параметр BVOP формата : 2Параметр QPel формата : НетПараметр GMC формата : Без точки переходаПараметр матрицы формата : Default (MPEG)Идентификатор кодека : XVIDИдентификатор кодека/Подсказка : XviDПродолжительность : 50 м.Битрейт : 1800 Кбит/секШирина : 720 пикселейВысота : 416 пикселейСоотношение сторон : 1,731Частота кадров : 25,000 кадров/секЦветовое пространство : YUVСубдискретизация насыщенности : 4:2:0Битовая глубина : 8 битТип развёртки : ПрогрессивнаяМетод сжатия : С потерямиБит/(Пиксели*Кадры) : 0.240Размер потока : 652 Мбайт (90%)Библиотека кодирования : XviD 73
АудиоИдентификатор : 1Формат файла : AC-3Формат файла/Информация : Audio Coding 3Расширение режима : CM (complete main)Параметр Endianness формата : BigИдентификатор кодека : 2000Продолжительность : 50 м.Вид битрейта : ПостоянныйБитрейт : 192 Кбит/секКаналы : 2 каналаРасположение каналов : Front: L RЧастота : 48,0 КГцБитовая глубина : 16 битМетод сжатия : С потерямиРазмер потока : 69,6 Мбайт (10%)Выравнивание : Разделение по промежуткамПродолжительность промежутка : 40 мс. (1,00 видеокадр)Время предзагрузки промежутка : 500 мс.


[torrentc.info]_t_5516783.torrent
Торрент: Зарегистрирован ·  [ 2018-02-13 20:14 ] ·  80c90383f3c13272701d9a92b2d8da57c422f543

12 KB

Статус: проверено
Скачан: 0 раз
Размер: 2.11 GB
Оценка: 
(Голосов: 0)
Сказали спасибо: 0  Спасибо
Похожие темы
[Профиль]    [ЛС]
Показать сообщения:    
Ответить на тему

Текущее время: Сегодня 19:17

Часовой пояс: GMT + 7



Вы не можете начинать темы
Вы не можете отвечать на сообщения
Вы не можете редактировать свои сообщения
Вы не можете удалять свои сообщения
Вы не можете голосовать в опросах
Вы не можете прикреплять файлы к сообщениям
Вы можете скачивать файлы