(Cool, West Coast Jazz) [CD] Jean-Louis Rassinfosse - Jean-Louis Rassinfosse, Chet Baker, Philip Catherine (Crystal Bells) - 1985, FLAC (tracks+.cue), lossless

Ответить на тему
Статистика раздачи [Обновить пиров]
Размер:  173 MB   |    Зарегистрирован:  2 месяца 14 дней   |    Скачан:  0 раз

Полного источника не было: Никогда

 
   
 
 
 
Автор Сообщение

torrentc.info

Создавать темы 09-Фев-2018 17:57

[Цитировать]

Jean-Louis Rassinfosse - Jean-Louis Rassinfosse, Chet Baker, Philip Catherine
Жанр: Cool, West Coast Jazz
Носитель: CD
Страна-производитель диска (релиза): Бельгия
Год издания: 1985
Издатель (лейбл): Igloo
Номер по каталогу: IGL 034
Аудиокодек: FLAC (*.flac)
Тип рипа: tracks+.cue
Битрейт аудио: lossless
Продолжительность: 43:31
Источник (релизер): demais
Наличие сканов в содержимом раздачи: да
Треклист:
01. Crystal Bells (Mariano) - 6:19
02. Strollin (Silver) - 7:27
03. Lament (Johnson) - 7:39
04. Leaving (Beirach) - 9:45
05. Cherokee (Noble) - 6:50
06. Estate (Martino) - 5:31
Состав:
Chet Baker - trumpet
Philip Catherine - guitar
Jean-Louis Rassinfosse - bass
Recorded at Igloo Studio, Brussels in September 1983.

Лог создания рипа

Exact Audio Copy V1.0 beta 3 from 29. August 2011
EAC extraction logfile from 27. January 2018, 18:40
Chet Baker / Chet Baker - Philip Catherine - Jean-Louis Rassinfosse
Used drive : PIONEER DVD-RW DVR-215D Adapter: 0 ID: 5
Read mode : SecureUtilize accurate stream : YesDefeat audio cache : YesMake use of C2 pointers : No
Read offset correction : 48Overread into Lead-In and Lead-Out : NoFill up missing offset samples with silence : YesDelete leading and trailing silent blocks : NoNull samples used in CRC calculations : YesUsed interface : Native Win32 interface for Win NT & 2000Gap handling : Appended to previous track
Used output format : User Defined EncoderSelected bitrate : 1024 kBit/sQuality : HighAdd ID3 tag : NoCommand line compressor : C:\Program Files (x86)\Exact Audio Copy\FLAC\FLAC.EXEAdditional command line options : -8 -V -T "ARTIST=%artist%" -T "TITLE=%title%" -T "ALBUM=%albumtitle%" -T "DATE=%year%" -T "TRACKNUMBER=%tracknr%" -T "GENRE=%genre%" -T "PERFORMER=%albuminterpret%" -T "COMPOSER=%composer%" %haslyrics%--tag-from-file=LYRICS="%lyricsfile%"%haslyrics% -T "ALBUMARTIST=%albumartist%" -T "DISCNUMBER=%cdnumber%" -T "TOTALDISCS=%totalcds%" -T "TOTALTRACKS=%numtracks%" -T "COMMENT=%comment%" %source% -o %dest%
TOC of the extracted CD
Track | Start | Length | Start sector | End sector --------------------------------------------------------- 1 | 0:00.32 | 6:19.20 | 32 | 28476 2 | 6:19.52 | 7:26.40 | 28477 | 61966 3 | 13:46.17 | 7:39.20 | 61967 | 96411 4 | 21:25.37 | 9:44.68 | 96412 | 140279 5 | 31:10.30 | 6:50.37 | 140280 | 171066 6 | 38:00.67 | 5:31.18 | 171067 | 195909
Track 1
Filename W:\_EAC\01 - Crystal Bells.wav
Pre-gap length 0:00:02.42
Peak level 72.2 % Extraction speed 4.8 X Track quality 100.0 % Test CRC DA0CB4B4 Copy CRC DA0CB4B4 Accurately ripped (confidence 10) [AE89B6E7] (AR v2) Copy OK
Track 2
Filename W:\_EAC\02 - Strollin.wav
Pre-gap length 0:00:02.09
Peak level 84.5 % Extraction speed 5.3 X Track quality 99.9 % Test CRC CB31A6F4 Copy CRC CB31A6F4 Accurately ripped (confidence 10) [215FEC41] (AR v2) Copy OK
Track 3
Filename W:\_EAC\03 - Lament.wav
Pre-gap length 0:00:02.53
Peak level 80.2 % Extraction speed 6.4 X Track quality 100.0 % Test CRC 979AE73E Copy CRC 979AE73E Accurately ripped (confidence 10) [5F0B3E5D] (AR v2) Copy OK
Track 4
Filename W:\_EAC\04 - Leaving.wav
Pre-gap length 0:00:02.33
Peak level 72.9 % Extraction speed 7.3 X Track quality 100.0 % Test CRC 0B3B5A62 Copy CRC 0B3B5A62 Accurately ripped (confidence 10) [BDC84E52] (AR v2) Copy OK
Track 5
Filename W:\_EAC\05 - Cherokee.wav
Pre-gap length 0:00:02.26
Peak level 76.1 % Extraction speed 7.7 X Track quality 100.0 % Test CRC 83B188C9 Copy CRC 83B188C9 Accurately ripped (confidence 10) [F102AB9B] (AR v2) Copy OK
Track 6
Filename W:\_EAC\06 - Estate.wav
Pre-gap length 0:00:02.22
Peak level 69.0 % Extraction speed 7.9 X Track quality 100.0 % Test CRC DB80AF5B Copy CRC DB80AF5B Accurately ripped (confidence 10) [A4399EBB] (AR v2) Copy OK
All tracks accurately ripped
No errors occurred
End of status report
==== Log checksum F7678BBB3F6E08546AE16D1127FC81FFDF665564B647867586CE2B3B57B901B2 ====

Содержание индексной карты (.CUE)

REM GENRE JazzREM DATE 1985REM DISCID 520A3406REM COMMENT "ExactAudioCopy v1.0b3"PERFORMER "Jean-Louis Rassinfosse"TITLE "Jean-Louis Rassinfosse, Chet Baker, Philip Catherine"FILE "01 - Crystal Bells.wav" WAVE TRACK 01 AUDIO TITLE "Crystal Bells" PERFORMER "Jean-Louis Rassinfosse" PREGAP 00:00:32 INDEX 01 00:00:00 TRACK 02 AUDIO TITLE "Strollin" PERFORMER "Jean-Louis Rassinfosse" INDEX 00 06:17:13FILE "02 - Strollin.wav" WAVE INDEX 01 00:00:00 TRACK 03 AUDIO TITLE "Lament" PERFORMER "Jean-Louis Rassinfosse" INDEX 00 07:24:00FILE "03 - Lament.wav" WAVE INDEX 01 00:00:00 TRACK 04 AUDIO TITLE "Leaving" PERFORMER "Jean-Louis Rassinfosse" INDEX 00 07:36:70FILE "04 - Leaving.wav" WAVE INDEX 01 00:00:00 TRACK 05 AUDIO TITLE "Cherokee" PERFORMER "Jean-Louis Rassinfosse" INDEX 00 09:42:48FILE "05 - Cherokee.wav" WAVE INDEX 01 00:00:00 TRACK 06 AUDIO TITLE "Estate" PERFORMER "Jean-Louis Rassinfosse" INDEX 00 06:48:20FILE "06 - Estate.wav" WAVE INDEX 01 00:00:00

Отчет CUETools

[CUETools log; Date: 07.02.2018 18:22:54; Version: 2.1.5]Pregap length 00:00:32.[CTDB TOCID: XAEsM00MlOOfU4Rj58OrqbjJc_Q-] found.Track | CTDB Status 1 | (11/11) Accurately ripped 2 | (10/11) Accurately ripped 3 | (11/11) Accurately ripped 4 | (11/11) Accurately ripped 5 | (11/11) Accurately ripped 6 | (11/11) Accurately ripped[AccurateRip ID: 000a9781-0038e15b-520a3406] found.Track [ CRC | V2 ] Status 01 [19b8800e|ae89b6e7] (03+10/13) Accurately ripped 02 [1821ccb6|215fec41] (03+10/13) Accurately ripped 03 [53271b63|5f0b3e5d] (03+10/13) Accurately ripped 04 [d8f31541|bdc84e52] (03+10/13) Accurately ripped 05 [2a515945|f102ab9b] (03+10/13) Accurately ripped 06 [f5121af0|a4399ebb] (03+10/13) Accurately ripped
Track Peak [ CRC32 ] [W/O NULL] [ LOG ] -- 84,5 [ACA510F8] [B4067AE1] 01 72,2 [DA0CB4B4] [A4C15E2C] CRC32 02 84,5 [CB31A6F4] [45178712] CRC32 03 80,2 [979AE73E] [B7B1520B] CRC32 04 72,9 [0B3B5A62] [3FC81722] CRC32 05 76,1 [83B188C9] [34B0791E] CRC32 06 69,0 [DB80AF5B] [BAE52BB3] CRC32

AllMusic Review by Matt Collar

This 1983 studio date, titled Crystal Bells here yet previously released under other titles, features trumpet Chet Baker performing within a trio setting with the Belgian duo of guitarist Philip Catherine and bassist Jean-Louis Rassinfosse. Although famously known as an intuitive musician who played by ear, by the '80s Baker's improvisation had coalesced into a beautifully logical, root harmony-based style in which one can discern the exact progressions of any given tune simply by listening to him. Here, his lines connect, turn by turn, melody upon melody like a pastel jigsaw puzzle forming before your eyes. Subsequently, Baker thrived in the company of the like-minded Belgians, whose bop-inflected technical prowess on their instruments was also matched by their deft sense for melodicism and sympathetic group interplay. As accompanists alone, they're superb cohorts for the jazz legend, hanging their ears on each of his notes, outlining the harmonies behind him, and buoying his soft, lyrical phrases. There are also subtle stylistic juxtapositions within the trio with Catherine's choice of electric, amplified guitar allowing for the occasional foray into country twang, or ambient, fusion-infused colorations. Similarly, though, Rassinfosse's velvety double-bass lines reveal the influence of the impressionistic tone of Ron Carter, and he never fails to imply a clipped rhythmic pulse; a necessary skill in the drummerless setting Baker often favored in his later years. Ultimately, Crystal Bells is an absolutely magical session with inspired performances that still ring true so many years after Baker's passing.


[torrentc.info]_t_5517666.torrent
Торрент: Зарегистрирован ·  [ 2018-02-09 17:56 ] ·  c6d4237dca8e8dd4770d1196528f0c18d317ab05

15 KB

Статус: проверено
Скачан: 0 раз
Размер: 173 MB
Оценка: 
(Голосов: 0)
Сказали спасибо: 0  Спасибо
Похожие темы
[Профиль]    [ЛС]
Показать сообщения:    
Ответить на тему

Текущее время: Сегодня 15:27

Часовой пояс: GMT + 7



Вы не можете начинать темы
Вы не можете отвечать на сообщения
Вы не можете редактировать свои сообщения
Вы не можете удалять свои сообщения
Вы не можете голосовать в опросах
Вы не можете прикреплять файлы к сообщениям
Вы можете скачивать файлы