(Cool, West Coast Jazz) [CD] Chet Baker - But Not for Me - 1982 (2003), FLAC (tracks+.cue), lossless

Ответить на тему
Статистика раздачи [Обновить пиров]
Размер:  195 MB   |    Зарегистрирован:  2 месяца 13 дней   |    Скачан:  0 раз

Полного источника не было: Никогда

 
   
 
 
 
Автор Сообщение

torrentc.info

Создавать темы 09-Фев-2018 17:57

[Цитировать]

Chet Baker - But Not for Me
Жанр: Cool, West Coast Jazz
Носитель: CD
Страна-производитель диска (релиза): США
Год издания: 2003
Издатель (лейбл): Random Chance
Номер по каталогу: RCD-10
Аудиокодек: FLAC (*.flac)
Тип рипа: tracks+.cue
Битрейт аудио: lossless
Продолжительность: 40:59
Источник (релизер): demais
Наличие сканов в содержимом раздачи: да
Треклист:
01. Lament (Trad.) - 6:55
02. Four (Davis) - 4:36
03. Line for Lyons (Mulligan) - 6:32
04. Ellen David (Haden) - 8:35
05. But Not for Me (Gershwin-Gershwin) - 6:26
06. Prayer for the Newborn (Luxion) - 7:55
Состав:
Chet Baker - trumpet, vocals (#2)
Kenny Barron - piano (#1,2,4-6)
Charlie Haden - bass
Ben Riley - drums
James Newton - flute (#1,4)
Howard Johnson - tuba (#2-5)
Recorded in New York on April 1, 1982.

Лог создания рипа

Exact Audio Copy V1.0 beta 3 from 29. August 2011
EAC extraction logfile from 28. January 2018, 15:54
Chet Baker / But Not For Me
Used drive : PIONEER DVD-RW DVR-215D Adapter: 0 ID: 5
Read mode : SecureUtilize accurate stream : YesDefeat audio cache : YesMake use of C2 pointers : No
Read offset correction : 48Overread into Lead-In and Lead-Out : NoFill up missing offset samples with silence : YesDelete leading and trailing silent blocks : NoNull samples used in CRC calculations : YesUsed interface : Native Win32 interface for Win NT & 2000Gap handling : Appended to previous track
Used output format : User Defined EncoderSelected bitrate : 1024 kBit/sQuality : HighAdd ID3 tag : NoCommand line compressor : C:\Program Files (x86)\Exact Audio Copy\FLAC\FLAC.EXEAdditional command line options : -8 -V -T "ARTIST=%artist%" -T "TITLE=%title%" -T "ALBUM=%albumtitle%" -T "DATE=%year%" -T "TRACKNUMBER=%tracknr%" -T "GENRE=%genre%" -T "PERFORMER=%albuminterpret%" -T "COMPOSER=%composer%" %haslyrics%--tag-from-file=LYRICS="%lyricsfile%"%haslyrics% -T "ALBUMARTIST=%albumartist%" -T "DISCNUMBER=%cdnumber%" -T "TOTALDISCS=%totalcds%" -T "TOTALTRACKS=%numtracks%" -T "COMMENT=%comment%" %source% -o %dest%
TOC of the extracted CD
Track | Start | Length | Start sector | End sector --------------------------------------------------------- 1 | 0:00.67 | 6:54.58 | 67 | 31174 2 | 6:55.50 | 4:36.25 | 31175 | 51899 3 | 11:32.00 | 6:32.35 | 51900 | 81334 4 | 18:04.35 | 8:35.17 | 81335 | 119976 5 | 26:39.52 | 6:25.65 | 119977 | 148916 6 | 33:05.42 | 7:54.53 | 148917 | 184519
Track 1
Filename W:\_EAC\01 - Lament.wav
Pre-gap length 0:00:02.89
Peak level 76.1 % Extraction speed 4.8 X Track quality 100.0 % Test CRC DD1A1BED Copy CRC DD1A1BED Accurately ripped (confidence 6) [D3C5E673] (AR v2) Copy OK
Track 2
Filename W:\_EAC\02 - Four.wav
Pre-gap length 0:00:02.46
Peak level 78.5 % Extraction speed 5.3 X Track quality 100.0 % Test CRC 5C07623A Copy CRC 5C07623A Accurately ripped (confidence 6) [16215315] (AR v2) Copy OK
Track 3
Filename W:\_EAC\03 - Line for Lyons.wav
Pre-gap length 0:00:01.66
Peak level 79.4 % Extraction speed 6.0 X Track quality 100.0 % Test CRC 7EF681AA Copy CRC 7EF681AA Accurately ripped (confidence 6) [CAF01BD1] (AR v2) Copy OK
Track 4
Filename W:\_EAC\04 - Ellen David.wav
Pre-gap length 0:00:03.80
Peak level 77.8 % Extraction speed 6.4 X Track quality 99.9 % Test CRC 669939CC Copy CRC 669939CC Accurately ripped (confidence 6) [9276303A] (AR v2) Copy OK
Track 5
Filename W:\_EAC\05 - But Not For Me.wav
Pre-gap length 0:00:02.98
Peak level 90.8 % Extraction speed 7.3 X Track quality 100.0 % Test CRC 3D87135A Copy CRC 3D87135A Accurately ripped (confidence 6) [93D84E74] (AR v2) Copy OK
Track 6
Filename W:\_EAC\06 - Prayer for the Newborn.wav
Pre-gap length 0:00:03.02
Peak level 70.5 % Extraction speed 7.9 X Track quality 100.0 % Test CRC 5744106C Copy CRC 5744106C Accurately ripped (confidence 6) [69614D1A] (AR v2) Copy OK
All tracks accurately ripped
No errors occurred
End of status report
==== Log checksum CFCE3B7D03D3BF7982FD87E0900D0A916CF43C619AF3CF8D9F67440DA6F65A9E ====

Содержание индексной карты (.CUE)

REM GENRE JazzREM DATE 1982REM DISCID 51099C06REM COMMENT "ExactAudioCopy v1.0b3"PERFORMER "Chet Baker"TITLE "But Not for Me"FILE "01 - Lament.wav" WAVE TRACK 01 AUDIO TITLE "Lament" PERFORMER "Chet Baker" PREGAP 00:00:67 INDEX 01 00:00:00 TRACK 02 AUDIO TITLE "Four" PERFORMER "Chet Baker" INDEX 00 06:52:23FILE "02 - Four.wav" WAVE INDEX 01 00:00:00 TRACK 03 AUDIO TITLE "Line for Lyons" PERFORMER "Chet Baker" INDEX 00 04:34:50FILE "03 - Line for Lyons.wav" WAVE INDEX 01 00:00:00 TRACK 04 AUDIO TITLE "Ellen David" PERFORMER "Chet Baker" INDEX 00 06:28:50FILE "04 - Ellen David.wav" WAVE INDEX 01 00:00:00 TRACK 05 AUDIO TITLE "But Not for Me" PERFORMER "Chet Baker" INDEX 00 08:32:18FILE "05 - But Not for Me.wav" WAVE INDEX 01 00:00:00 TRACK 06 AUDIO TITLE "Prayer for the Newborn" PERFORMER "Chet Baker" INDEX 00 06:22:63FILE "06 - Prayer for the Newborn.wav" WAVE INDEX 01 00:00:00

Отчет CUETools

[CUETools log; Date: 07.02.2018 18:40:59; Version: 2.1.5]Pregap length 00:00:67.[CTDB TOCID: ar9rzo7ra9iOZyanpXj10j2vhz8-] found.Track | CTDB Status 1 | (14/14) Accurately ripped 2 | (14/14) Accurately ripped 3 | (13/14) Accurately ripped 4 | (13/14) Accurately ripped 5 | (13/14) Accurately ripped 6 | (13/14) Accurately ripped[AccurateRip ID: 00096da3-0032c9e4-51099c06] found.Track [ CRC | V2 ] Status 01 [642e155d|d3c5e673] (03+06/16) Accurately ripped 02 [fe1949cd|16215315] (03+06/16) Accurately ripped 03 [5b4326ea|caf01bd1] (03+06/16) Accurately ripped 04 [26faa407|9276303a] (03+06/16) Accurately ripped 05 [f34058bd|93d84e74] (03+06/16) Accurately ripped 06 [76256d0e|69614d1a] (03+06/16) Accurately rippedOffsetted by 664: 01 [cf65e819] (04/16) Accurately ripped 02 [9b264b32] (04/16) Accurately ripped 03 [e4538f5d] (04/16) Accurately ripped 04 [2eb4b47b] (04/16) Accurately ripped 05 [7c11e257] (04/16) Accurately ripped 06 [37d0319c] (04/16) Accurately ripped
Track Peak [ CRC32 ] [W/O NULL] [ LOG ] -- 90,8 [AC38AB8C] [423409FE] 01 76,1 [DD1A1BED] [2B58EFAA] CRC32 02 78,5 [5C07623A] [3D87E894] CRC32 03 79,4 [7EF681AA] [8145B5BB] CRC32 04 77,8 [669939CC] [9AEDB80B] CRC32 05 90,8 [3D87135A] [9347CA1B] CRC32 06 70,5 [5744106C] [E643DD5F] CRC32

AllMusic Review by Ken Dryden

This 1994 CD, released some six years following the death of Chet Baker, is a major addition to his discography. The trumpeter, who seemed to go into the studio almost obsessively during the last dozen years of his life, is heard in what seems to be a well thought out session with an impressive cast. The rhythm section of Kenny Barron, Charlie Haden, and Ben Riley ranks as one of the best that ever accompanied Baker, resulting in some very inspired playing all around. Flautist James Newton is added for the gorgeous "Lament" (a reworking of the old spiritual "Sometimes I Feel Like a Motherless Child" and not the J. J. Johnson composition of the same name). The imaginative take of Miles Davis' "Four" begins with just Haden accompanying Baker's vocal, before tuba player Howard Johnson takes Baker's place, with the leader eventually adding his trumpet to what finally becomes a trio. Johnson's tuba also makes an interesting substitute for Gerry Mulligan's baritone sax in the original recording of "Line for Lyons," though it's impossible for him to achieve the lyricism of its composer in his famous recording; Barron also sits out this number. Baker takes to Haden's moody "Ellen David" like it was a part of his regular repertoire. A snappy arrangement of Gershwin's "But Not for Me" is followed by the intriguing "Prayer for the Newborn," a fairly modern ballad penned by Dennis Luxion. It's a shame that Barron and Haden didn't have more opportunities to record with Chet Baker, as the results within this release show a considerable chemistry between them. Out of print since the demise of Stash in the mid-1990s, this very unusual session is worth the intense search likely required to obtain it.


[torrentc.info]_t_5517672.torrent
Торрент: Зарегистрирован ·  [ 2018-02-09 17:56 ] ·  a36926e9a3adfd7d772bc00805a7f0d82a5a3ab0

16 KB

Статус: проверено
Скачан: 0 раз
Размер: 195 MB
Оценка: 
(Голосов: 0)
Сказали спасибо: 0  Спасибо
Похожие темы
[Профиль]    [ЛС]
Показать сообщения:    
Ответить на тему

Текущее время: Сегодня 08:45

Часовой пояс: GMT + 7



Вы не можете начинать темы
Вы не можете отвечать на сообщения
Вы не можете редактировать свои сообщения
Вы не можете удалять свои сообщения
Вы не можете голосовать в опросах
Вы не можете прикреплять файлы к сообщениям
Вы можете скачивать файлы