КВН-2018. Вся высшая лига 2018 года (01 из15) [2018, Тв-шоу, юмор, HDTVRip-AVC]

Ответить на тему
Статистика раздачи [Обновить пиров]
Размер:  1.4 GB   |    Зарегистрирован:  8 месяцев 10 дней   |    Скачан:  0 раз

Полного источника не было: Никогда

 
   
 
 
 
Автор Сообщение

torrentc.info

Создавать темы 06-Фев-2018 20:21

[Цитировать]

КВН-2018. Вся высшая лига 2018 года
Год выхода: 2018
Страна: Россия
Жанр: Тв-шоу, юмор
Перевод: Не требуется
Русские субтитры: нет
качество: HDTVRip-AVC
формат: MKV
видеокодек: H.264
аудиокодек: mp2
Видео: h264 720x408 25 fps 1465 kpps 0.2 bit/pixe
Аудио: Russian (mp2, 48.0 KHz, 2 ch 192 kbps)

Описание выпусков(01) Фестиваль Кивин в Сочи

Название: КВН-2018.(01).КиВиН в Сочи. Гала-концерт
В очередной раз команды КВН в начале года собрались городе Сочи на ежегодный фестиваль команд. Многие из них по итогам своих выступлений в первых двух турах были отобраны в те или иные лиги за исключением Высшей. Кандидаты в Вышку проходят тоже ставший в последние годы традиционный смотр, именуемый Гала-концертом. Итак, завершение зимнего фестиваля КиВиН-2018!
Жюри: Леонид Купридо, Александр Александрович Масляков, Семён Слепаков, Александр Васильевич Масляков
Финалисты Премьер-лиги 2017 года
- рэп-представление самих себя
Морская академия (Мурманск)
- танцы вместо мата на корабле
- взятка от депутата
Сборная вузов Чеченской республики (Грозный)
- чеченец впервые съел свинину
- интервью губернатора суздальской области
Сборная Забайкальского края (Чита)
- песня про бурят
- в примерочной
- в семье
- на избирательном участке
- в кабинете Ким Чен Ына
- предложение девушке
G-Drive (Москва)
- сотрудник буровой платформы в очередной раз не может совершить каминг-аут
Сборная Великобритании
- проверка на русскость
- урок английского языка
- русский комментатор кануполо
- англичанин обиделся на команду
Будем дружить семьями (Москва)
- в семье
- подарок сына отцу
- подбор девушек на замену
Планета Сочи (Сочи)
- пародия на Григория Лепса
- песня ресторанного певца
- письмо от военного комиссара
- тост
Наполеон Динамит (Тюмень)
- новый игрок команды для изменений
- происхождение крутости
- побег от капитана команды
Михаил Дудиков (Ставрополь)
- обида девушки
- парень, который абсолютно не умеет воровать
- отец пытается отправить сына в армию
Сборная СНГ по вольной борьбе (Сургут)
- напоминание истории команды
- фокус
- проблемы с любым КВНщиком
Сборная калининградской области
- если бы в "Полу чудес" играли насмерть
- современные телепередачи с саундтреками
Нате (ст. Брюховецкая)
- в брюховецком дворе
- брюховецкая пара в центре планирования семьи
Без консервантов (Санкт-Петербург)
- уступка места
- поиск девушке места в команде
Вятка (Киров)
- представление генералов от командора
- напряг напрягающих
- разговор командора с Главным
Русская Дорога (Армавир)
- визит в Сочи с тёщей
- деньги на гулянку
- бухгалтер для команды
Финалисты Высшей лиги 2017 года
- издевательства Богдана
- впечатления от финальной игры прошлого сезона
- планы команд на будущее
Дата игры: 16.01.2018
Дата эфира: 28.01.2018

(02) 1-1/8

(03) 2-1/8

(04) 3-1/8

(05) 4-1/8

(06) 1-1/4

(07) 2-1/4

(08) 3-1/4

(09) Летний кубок

(10) Музыкальный фестиваль

(11) Встреча выпускников

(12) 1-1/2

(13) 2-1/2

(14) Кубок мэра Москвы

(15) Финал

MediaInfo(01) Фестиваль Кивин в Сочи

Общее
Уникальный идентификатор : 142738383908383818867253931622543934754 (0x6B6269ABD60627E1CE3438DCE0E44522)
Полное имя : H:\трекер\KVN.2018.All.AVC\KVN.2018.(01).Sochi.HDTVRip-AVC.mkv
Формат файла : Matroska
Версия формата : Version 4 / Version 2
Размер файла : 1,40 Гбайт
Продолжительность : 2 ч. 0 м.
Общий поток : 1659 Кбит/сек
Дата кодирования : UTC 2018-02-01 18:09:32
Программа кодирования : mkvmerge v19.0.0 ('Brave Captain') 64-bit
Библиотека кодирования : libebml v1.3.5 + libmatroska v1.4.8
Обложка : Yes
Attachments : cover.jpg
Видео
Идентификатор : 1
Формат файла : AVC
Формат файла/Информация : Advanced Video Codec
Профиль формата : High@L3.1
Настройки формата : CABAC / 9 Ref Frames
Параметр CABAC формата : Да
Параметр RefFrames формата : 9 кадров
Идентификатор кодека : V_MPEG4/ISO/AVC
Продолжительность : 2 ч. 0 м.
Битрейт : 1465 Кбит/сек
Ширина : 720 пикселей
Высота : 408 пикселей
Соотношение сторон : 16:9
Режим частоты кадров : Постоянный
Частота кадров : 25,000 кадров/сек
Цветовое пространство : YUV
Субдискретизация насыщенности : 4:2:0
Битовая глубина : 8 бит
Тип развёртки : Прогрессивная
Бит/(Пиксели*Кадры) : 0.199
Размер потока : 1,23 Гбайт (88%)
Библиотека кодирования : x264 core 152 r2851 ba24899
Настройки программы : cabac=1 / ref=9 / deblock=1:-1:-1 / analyse=0x3:0x133 / me=umh / subme=11 / psy=1 / psy_rd=1.05:0.00 / mixed_ref=1 / me_range=32 / chroma_me=1 / trellis=2 / 8x8dct=1 / cqm=0 / deadzone=21,11 / fast_pskip=0 / chroma_qp_offset=-2 / threads=12 / lookahead_threads=2 / sliced_threads=0 / nr=0 / decimate=0 / interlaced=0 / bluray_compat=0 / constrained_intra=0 / bframes=8 / b_pyramid=2 / b_adapt=2 / b_bias=0 / direct=3 / weightb=1 / open_gop=0 / weightp=2 / keyint=250 / keyint_min=25 / scenecut=40 / intra_refresh=0 / rc=2pass / mbtree=0 / bitrate=1465 / ratetol=1.0 / qcomp=0.65 / qpmin=0 / qpmax=69 / qpstep=4 / cplxblur=20.0 / qblur=0.5 / ip_ratio=1.40 / pb_ratio=1.30 / aq=1:1.00
Язык : Russian
Default : Да
Forced : Нет
Аудио
Идентификатор : 2
Формат файла : MPEG Audio
Версия формата : Version 1
Профиль формата : Layer 2
Идентификатор кодека : A_MPEG/L2
Идентификатор кодека/Подсказка : MP2
Продолжительность : 2 ч. 0 м.
Вид битрейта : Постоянный
Битрейт : 192 Кбит/сек
Каналы : 2 канала
Частота : 48,0 КГц
Частота кадров : 41,667 кадра/сек (1152 SPF)
Метод сжатия : С потерями
Размер потока : 166 Мбайт (12%)
Язык : Russian
Default : Да
Forced : Нет

(02) 1-1/8

(03) 2-1/8

(04) 3-1/8

(05) 4-1/8

(06) 1-1/4

(07) 2-1/4

(08) 3-1/4

(09) Летний кубок

(10) Музыкальный фестиваль

(11) Встреча выпускников

(12) 1-1/2

(13) 2-1/2

(14) Кубок мэра Москвы

(15) Финал

Внимание! Раздача ведётся путём добавления новых серий

Внимание! Раздача ведётся путём добавления новых серий; при каждом добавлении создаётся новый торрент. Чтобы начать докачку новой серии, пользователям необходимо сделать следующее:
(1) остановить скачивание,
(2) удалить старый торрент у себя из клиента (старые серии удалять не надо),
(3) скачать новый торрент и запустить его у себя в клиенте вместо старого, при этом указать клиенту путь в старую папку куда и должно происходить скачивание новых серий.
Ваш клиент при этом должен произвести хеширование (проверку) старой папки (если не производит сам - помогите ему сделать это), и будет докачивать только те серии которых у вас ещё нет. Старые серии при этом не удаляются, а продолжают раздаваться!
Eсли вы уже удалили старые серии, то предотвратить повторную закачку старых серий можно, отжав галочку в соответсвующих местах при запуске нового торрента. По возможности, желательно не удалять старые серии как можно дольше чтобы релизёр не столько продолжал раздавать старые серии, а смог сконцентрироваться на новых.


[torrentc.info]_t_5515083.torrent
Торрент: Зарегистрирован ·  [ 2018-02-06 20:21 ] ·  ec5bf322ea16973ff70eb46e0c74e8d348c960ac

15 KB

Статус: проверено
Скачан: 0 раз
Размер: 1.4 GB
Оценка: 
(Голосов: 0)
Сказали спасибо: 0  Спасибо
Похожие темы
[Профиль]    [ЛС]
Показать сообщения:    
Ответить на тему

Текущее время: Сегодня 13:14

Часовой пояс: GMT + 7



Вы не можете начинать темы
Вы не можете отвечать на сообщения
Вы не можете редактировать свои сообщения
Вы не можете удалять свои сообщения
Вы не можете голосовать в опросах
Вы не можете прикреплять файлы к сообщениям
Вы можете скачивать файлы