(Death Metal) [CD] VA - Regicide Decease & Calcined - Death Illumination - In Memory of Evil Chuck - 2012, FLAC (image+.cue), lossless

Ответить на тему
Статистика раздачи [Обновить пиров]
Размер:  255 MB   |    Зарегистрирован:  8 месяцев 17 дней   |    Скачан:  0 раз
Сидеров:  1  [  0 KB/s  ]   Подробная статистика скачивающих
 
   
 
 
 
Автор Сообщение

torrentc.info

Создавать темы 03-Фев-2018 10:56

[Цитировать]

Regicide Decease & Calcined / Death Illumination - In Memory of Evil Chuck
Жанр: Death Metal
Носитель: CD
Страна-производитель диска (релиза): Ukraine
Год издания: 2012
Издатель (лейбл): Metal Scrap Records
Номер по каталогу: MSR040
Страна исполнителя (группы): Poland & Switzerland
Аудиокодек: FLAC (*.flac)
Тип рипа: image+.cue
Битрейт аудио: lossless
Продолжительность: 00:30:58
Источник (релизер): my own rip
Наличие сканов в содержимом раздачи: да
Треклист:
1. Regicide Decease - Aethyr of Desecration 04:03
2. Regicide Decease - Revelation of Dark Gnosis 04:43
3. Regicide Decease - Black Sun Psalm 05:12
4. Regicide Decease - Born Dead (Death cover) 03:25
5. Calcined - Stripped by Life 02:53
6. Calcined - The Call 04:30
7. Calcined - For the Beyond 03:17
8. Calcined - Evil Dead (Death cover) 02:55

Лог создания рипа

Exact Audio Copy V1.3 from 2. September 2016
EAC extraction logfile from 2. February 2018, 23:28
Regicide Decease / Calcined / Death Illumination - In Memory of Evil Chuck
Used drive : ATAPI iHAS124 E Adapter: 1 ID: 0
Read mode : SecureUtilize accurate stream : YesDefeat audio cache : YesMake use of C2 pointers : No
Read offset correction : 6Overread into Lead-In and Lead-Out : NoFill up missing offset samples with silence : YesDelete leading and trailing silent blocks : NoNull samples used in CRC calculations : YesUsed interface : Native Win32 interface for Win NT & 2000
Used output format : User Defined EncoderSelected bitrate : 1024 kBit/sQuality : HighAdd ID3 tag : NoCommand line compressor : C:\Program Files\Exact Audio Copy\Flac\flac.exeAdditional command line options : -V -8 -T "Date=%year%" -T "Genre=%genre%" %source%
TOC of the extracted CD
Track | Start | Length | Start sector | End sector---------------------------------------------------------1 | 0:00.00 | 4:03.45 | 0 | 182692 | 4:03.45 | 4:43.49 | 18270 | 395433 | 8:47.19 | 5:12.21 | 39544 | 629644 | 13:59.40 | 3:25.50 | 62965 | 783895 | 17:25.15 | 2:53.33 | 78390 | 913976 | 20:18.48 | 4:30.28 | 91398 | 1116757 | 24:49.01 | 3:17.27 | 111676 | 1264778 | 28:06.28 | 2:55.14 | 126478 | 139616
Range status and errors
Selected range
Filename C:\EAC\vampire_71\Regicide Decease , Calcined - Death Illumination - In Memory of Evil Chuck.wav
Peak level 100.0 %Extraction speed 7.9 XRange quality 100.0 %Test CRC D261BCD1Copy CRC D261BCD1Copy OK
No errors occurred
AccurateRip summary
Track 1 not present in databaseTrack 2 not present in databaseTrack 3 not present in databaseTrack 4 not present in databaseTrack 5 not present in databaseTrack 6 not present in databaseTrack 7 not present in databaseTrack 8 not present in database
None of the tracks are present in the AccurateRip database
End of status report
---- CUETools DB Plugin V2.1.6
[CTDB TOCID: K6NTi5S5VTfTkRIBnHc5UeM4TaI-] foundSubmit result: K6NTi5S5VTfTkRIBnHc5UeM4TaI- has been confirmedTrack | CTDB Status1 | (1/1) Accurately ripped2 | (1/1) Accurately ripped3 | (1/1) Accurately ripped4 | (1/1) Accurately ripped5 | (1/1) Accurately ripped6 | (1/1) Accurately ripped7 | (1/1) Accurately ripped8 | (1/1) Accurately ripped
==== Log checksum FA532219C8A2F4FAA2858775DD0EA5EAF3F7B32C06AED85BFB00B927ADA39424 ====
Доп. информация: https://youtu.be/fd4blnnbF38


[torrentc.info]_t_5515534.torrent
Торрент: Зарегистрирован ·  [ 2018-02-03 10:56 ] ·  87052d32de9923b8ced576400914c4507a4b737b

22 KB

Статус: проверено
Скачан: 0 раз
Размер: 255 MB
Оценка: 
(Голосов: 0)
Сказали спасибо: 0  Спасибо
Похожие темы
[Профиль]    [ЛС]
Показать сообщения:    
Ответить на тему

Текущее время: Сегодня 01:04

Часовой пояс: GMT + 7



Вы не можете начинать темы
Вы не можете отвечать на сообщения
Вы не можете редактировать свои сообщения
Вы не можете удалять свои сообщения
Вы не можете голосовать в опросах
Вы не можете прикреплять файлы к сообщениям
Вы можете скачивать файлы