Эпос о Лиликане (Мария Литвинова, Вячеслав Игнатов) [2012, эпос, кукольный, DVB-AVC] Театр Тень

Ответить на тему
Статистика раздачи [Обновить пиров]
Размер:  493 MB   |    Зарегистрирован:  7 месяцев 19 дней   |    Скачан:  0 раз

Полного источника не было: Никогда

 
   
 
 
 
Автор Сообщение

torrentc.info

Создавать темы 30-Янв-2018 22:44

[Цитировать]

Эпос о Лиликане
Большой Королевский Лиликанкий Театр- Название театра: Театр "Тень"
Жанр: эпос, кукольный
Год выхода: 2012
Продолжительность: 00:48:13
Режиссёр-постановщик: Мария Литвинова, Вячеслав Игнатов
В ролях: Мария Вольфсон, Руслан Вольфсон, Мелисса Лаус, Данил Ариков, Мария Литвинова
Описание: Спектакль "Эпос о Лиликане" проходит на малой сцене московского театра "Тень", предназначенной всего для пяти-шести зрителей. Перед началом публика собирается в фойе, где для гостей устраивается красивое чаепитие. Во время него ведущая рассказывает древний миф про устройство Вселенной с точки зрения народа лиликан. Действие постановки разворачивается в Большом королевском театре лиликан, причём зрители смотрят представление через его окна. Актёры говорят на лиликанском языке с синхронным переводом на русский. В основе сюжета — древний лиликанский эпос, повествующий о начале времён, создании мира и возникновении народа лиликан. Главный герой отправляется на поиски своего брата, которого похитила богиня судьбы. Но позже выясняется, что искал он самого себя. Герой путешествует по древу судьбы, по дороге оказывается в царстве гномов, а также среди русалок, его окутывают миражи прошлого. Он добирается до небес, где живут боги и бессмертные, но нигде не хочет остаться без своего брата. Несмотря на все трудности, персонаж находит свой путь.
Доп. информация: Intelsat 15 (85.0°E) Телеканал "Театр" DVB-S
Награда: лауреат премии "Золотая маска" 2010 за лучший кукольный спектакль.

Качество видео: DVB-AVC
Формат файла: MKV
Видео: AVC (H.264), 720x576 (16:9), 25 fps, ~1240 kbps avg, 0.071 bit/pixel
Аудио: MPEG Audio 2, 2 ch, 48 kHz, 160 kbps

MediaInfo

GeneralUnique ID : 235197567353381342799675893773070902161 (0xB0F1675E35EFF69546A278B759A62391)Complete name : [apreder]Epos_o_Lilikane(2012).mkvFormat : MatroskaFormat version : Version 2File size : 493 MiBDuration : 48 min 13 sOverall bit rate : 1 429 kb/sMovie name : Эпос о ЛиликанеReleased date : 2012-00-00Encoded date : UTC 2018-01-28 15:43:30Writing application : mkvmerge v20.0.0 ('I Am The Sun') 64-bitWriting library : libebml v1.3.5 + libmatroska v1.4.8Cover : YesAttachments : cover.jpg / small_cover.jpgDIRECTOR : Мария Литвинова, Вячеслав ИгнатовGENRE : TheatreKEYWORDS : TorrentcLAW_RATING : 12+
VideoID : 1Format : AVCFormat/Info : Advanced Video CodecFormat profile : Main@L3Format settings : CABAC / 3 Ref FramesFormat settings, CABAC : YesFormat settings, RefFrames : 3 framesCodec ID : V_MPEG4/ISO/AVCDuration : 48 min 13 sBit rate : 1 240 kb/sWidth : 720 pixelsHeight : 576 pixelsDisplay aspect ratio : 16:9Original display aspect ratio : 16:9Frame rate mode : ConstantFrame rate : 25.000 FPSStandard : ComponentColor space : YUVChroma subsampling : 4:2:0Bit depth : 8 bitsScan type : ProgressiveBits/(Pixel*Frame) : 0.120Stream size : 428 MiB (87%)Default : YesForced : NoColor range : LimitedColor primaries : BT.601 PALTransfer characteristics : BT.470 System B, BT.470 System GMatrix coefficients : BT.470 System B, BT.470 System G
AudioID : 2Format : MPEG AudioFormat version : Version 1Format profile : Layer 2Codec ID : A_MPEG/L2Codec ID/Hint : MP2Duration : 48 min 13 sBit rate mode : ConstantBit rate : 160 kb/sChannel(s) : 2 channelsSampling rate : 48.0 kHzCompression mode : LossyStream size : 55.2 MiB (11%)Language : RussianDefault : YesForced : No

Скриншот с названием постановки

- [4'058]


[torrentc.info]_t_5513196.torrent
Торрент: Зарегистрирован ·  [ 2018-01-30 22:42 ] ·  9d55ebe17d4801661c13588b39b66d91e531b094

5 KB

Статус: проверено
Скачан: 0 раз
Размер: 493 MB
Оценка: 
(Голосов: 0)
Сказали спасибо: 0  Спасибо
Похожие темы
[Профиль]    [ЛС]
Показать сообщения:    
Ответить на тему

Текущее время: Сегодня 14:50

Часовой пояс: GMT + 7



Вы не можете начинать темы
Вы не можете отвечать на сообщения
Вы не можете редактировать свои сообщения
Вы не можете удалять свои сообщения
Вы не можете голосовать в опросах
Вы не можете прикреплять файлы к сообщениям
Вы можете скачивать файлы