(IDM, Industrial) [WEB] Stasis Device - Produce, Consume, Destroy - 2017, FLAC (tracks) lossless

Ответить на тему
Статистика раздачи [Обновить пиров]
Размер:  320 MB   |    Зарегистрирован:  8 месяцев 24 дня   |    Скачан:  0 раз

Полного источника не было: Никогда

 
   
 
 
 
Автор Сообщение

torrentc.info

Создавать темы 27-Янв-2018 18:52

[Цитировать]

Stasis Device -- Produce, Consume, Destroy--Жанр: IDM, Industrial
Носитель: WEB
Лейбл: RAUMKLANG MUSIC
Каталог: raum-cd-33
Страна исполнителя (группы): Германия
Год издания: 2017
Аудиокодек: FLAC
Тип рипа: tracks
Битрейт аудио: lossless
Продолжительность: 00:55:15
Источник: обмен
Наличие сканов в содержимом раздачи: нет-Треклист:
01. Gaia [4:27]
02. The Great Trees Fall [5:32]
03. Rich Harvest [5:34]
04. Produce [3:28]
05. Electro Machinist [5:52]
06. Consume [5:30]
07. Play with the Golden Card [4:16]
08. Destroy [4:06]
09. Black Seabed [5:29]
10. Dead Planet [5:32]
11. Eternity [5:30]

Лог проверки качества

AUDIOCHECKER v2.0 beta (build 457) - by Dester - opdester@freemail.hu~~~~~~~~~~~~~~~~~~~~~~~~~~~~~~~~~~-=== DO NOT EDIT THIS FILE! ===-
Path: ...\Stasis Device - Produce, Consume, Destroy - 2017 [WEB-FLAC]
01 -=- 01. Gaia.flac -=- CDDA (100%)02 -=- 02. The Great Trees Fall.flac -=- CDDA (100%)03 -=- 03. Rich Harvest.flac -=- CDDA (100%)04 -=- 04. Produce.flac -=- CDDA (100%)05 -=- 05. Electro Machinist.flac -=- CDDA (99%)06 -=- 06. Consume.flac -=- CDDA (100%)07 -=- 07. Play With The Golden Card.flac -=- CDDA (100%)08 -=- 08. Destroy.flac -=- CDDA (100%)09 -=- 09. Black Seabed.flac -=- CDDA (100%)10 -=- 10. Dead Planet.flac -=- CDDA (100%)11 -=- 11. Eternity.flac -=- CDDA (100%)
Summary 99,91% CDDA
235557940

Замер динамического диапазона

foobar2000 1.3.16 / Замер динамического диапазона (DR) 1.1.1Дата отчёта: 2018-01-25 19:39:07
--------------------------------------------------------------------------------Анализ: Stasis Device / Produce, Consume, Destroy--------------------------------------------------------------------------------
DR Пики RMS Продолжительность трека--------------------------------------------------------------------------------DR6 -0.28 дБ -8.35 дБ 4:27 01-GaiaDR7 -0.28 дБ -9.06 дБ 5:32 02-The Great Trees FallDR4 -0.28 дБ -6.27 дБ 5:34 03-Rich HarvestDR6 -0.28 дБ -7.76 дБ 3:28 04-ProduceDR5 -0.28 дБ -8.39 дБ 5:51 05-Electro MachinistDR6 -0.28 дБ -7.82 дБ 5:30 06-ConsumeDR6 -0.28 дБ -8.44 дБ 4:16 07-Play With The Golden CardDR7 -0.28 дБ -8.71 дБ 4:06 08-DestroyDR6 -0.28 дБ -9.33 дБ 5:28 09-Black SeabedDR7 -0.28 дБ -9.06 дБ 5:32 10-Dead PlanetDR5 -0.28 дБ -7.41 дБ 5:29 11-Eternity--------------------------------------------------------------------------------
Количество треков: 11Реальные значения DR: DR6
Частота: 44100 ГцКаналов: 2Разрядность: 16Битрейт: 884 кбит/сКодек: FLAC================================================================================

Скриншоты спектра частот



[torrentc.info]_t_5511672.torrent
Торрент: Зарегистрирован ·  [ 2018-01-27 18:49 ] ·  3a62bdbe1650f3874eb6129248f4343ab132495f

14 KB

Статус: проверено
Скачан: 0 раз
Размер: 320 MB
Оценка: 
(Голосов: 0)
Сказали спасибо: 0  Спасибо
Похожие темы
[Профиль]    [ЛС]
Показать сообщения:    
Ответить на тему

Текущее время: Сегодня 00:23

Часовой пояс: GMT + 7



Вы не можете начинать темы
Вы не можете отвечать на сообщения
Вы не можете редактировать свои сообщения
Вы не можете удалять свои сообщения
Вы не можете голосовать в опросах
Вы не можете прикреплять файлы к сообщениям
Вы можете скачивать файлы