[TR24][OF] Patricia Barber - Monday Night Live At The Green Mill, Vol. 3 - 2016 (Vocal Jazz)

Ответить на тему
Статистика раздачи [Обновить пиров]
Размер:  1.25 GB   |    Зарегистрирован:  3 месяца 30 дней   |    Скачан:  0 раз

Полного источника не было: Никогда

 
   
 
 
 
Автор Сообщение

torrentc.info

Создавать темы 26-Янв-2018 21:07

[Цитировать]

Patricia Barber - Monday Night Live At The Green Mill, Vol. 3 Формат файла записи/Источник записи: [TR24][OF]
Наличие водяных знаков: Нет
Год издания/переиздания диска: 2016
Жанр: Vocal Jazz
Издатель (лейбл): Not On Label
Продолжительность: 67:45
Наличие сканов в содержимом раздачи: Только обложка альбома
Треклист:
01. In Your Own Sweet Way (8:07)
02. Romanesque (4:49)
03. Fotografia (5:09)
04. Crash (8:50)
05. I Could Have Danced All Night (4:58)
06. The Thrill Is Gone (4:19)
07. Moon River (4:13)
08. You Gotta Go Home (5:07)
09. Stay With Me (6:31)
10. Orpheus (Sonnet) (4:32)
11. Groovin' High (11:10)
Personnel:
Patricia Barber - piano, vocals
Jim Gailloreto - sax
Larry Kohut - bass
John Deitemyer - drums
Tom Hipskind - drums (11)
Rec.: live at The Green Mill, Chicago, IL, February 1 (#2, 3, 5, 8-11), 8 (#1, 4, 7) and 15 (#6), 2016.
 

Несколько слов на английском

Vocalist/pianist Patricia Barber's 25-year career has been brilliantly marked by a complete unwillingness to compromise her approach to music. She exists in that uncharted creative realm where she successfully defies classification as a purveyor of any particular musical movement or genre. On this live recording, assembled from her Monday night appearances at Chicago's Green Mill, Barber displays her impressive piano command and unique approach to the standards as well as her finely-crafted original compositions. This is "Digital only" release!
I have been blessed to have a weekly Monday Night gig at The Green Mill, one of the hippest jazz clubs in the world in one of the most exciting cities in the world, Chicago. enormous thanks to Dave Jemilo for keeping this Chicago treasure alive and for letting me a part of it. Also, thanks to our soundman here Chris Grabowski who increasingly is recognized for his very special "live" sound recordings. On this, the third "Live from the Green Mill " download, you'll hear not only the music, but the soft landscape of the club and the city. Larry Kohut is on acoustic bass, Jon Deitemyer is on drums and Jim Gailloreto is on tenor saxophone. The recording is exceptional. I suggest you get one of the better sound file downloads, close your eyes and time travel to this Monday Night at the Green Mill.
– Patricia Barber
-Формат файла: FLAC (*.flac)
Тип рипа: tracks
Разрядность: 24/96
Формат файла: PCM
Количество каналов: 2.0

Лог проверки качества

foobar2000 1.3.9 / Dynamic Range Meter 1.1.1log date: 2018-01-21 13:52:58
--------------------------------------------------------------------------------Analyzed: Patricia Barber / Monday Night: Live At The Green Mill, Vol. 3--------------------------------------------------------------------------------
DR Peak RMS Duration Track--------------------------------------------------------------------------------DR14 -0.26 dB -17.25 dB 8:07 01-In Your Own Sweet WayDR15 -0.26 dB -20.20 dB 4:49 02-RomanesqueDR13 -0.26 dB -18.04 dB 5:09 03-FotografiaDR12 -0.26 dB -16.23 dB 8:50 04-CrashDR11 -0.26 dB -14.89 dB 4:58 05-I Could Have Danced All NightDR11 -0.26 dB -15.72 dB 4:19 06-The Thrill Is GoneDR14 -0.26 dB -18.92 dB 4:13 07-Moon RiverDR11 -0.26 dB -14.79 dB 5:07 08-You Gotta Go HomeDR11 -0.26 dB -15.64 dB 6:31 09-Stay With MeDR11 -0.26 dB -14.90 dB 4:32 10-Orpheus (Sonnet)DR12 -0.26 dB -15.39 dB 11:10 11-Groovin' High--------------------------------------------------------------------------------
Number of tracks: 11Official DR value: DR12
Samplerate: 96000 HzChannels: 2Bits per sample: 24Bitrate: 2728 kbpsCodec: FLAC================================================================================
Источник: patriciabarber.com


[torrentc.info]_t_5509973.torrent
Торрент: Зарегистрирован ·  [ 2018-01-26 21:07 ] ·  f9d85b5c5c23bb568c6a163957ff1822c2a632a6

14 KB

Статус: проверено
Скачан: 0 раз
Размер: 1.25 GB
Оценка: 
(Голосов: 0)
Сказали спасибо: 0  Спасибо
Похожие темы
[Профиль]    [ЛС]
Показать сообщения:    
Ответить на тему

Текущее время: Сегодня 09:21

Часовой пояс: GMT + 7



Вы не можете начинать темы
Вы не можете отвечать на сообщения
Вы не можете редактировать свои сообщения
Вы не можете удалять свои сообщения
Вы не можете голосовать в опросах
Вы не можете прикреплять файлы к сообщениям
Вы можете скачивать файлы