Опасный полет / Опасен полет / Opasen polet (Димитр Петров / Димитър Петров / Dimitar Petrov) [1968, Болгария, шпионский фильм, Screener > DVD] [Советская прокатная копия] Dub (Горького)

Ответить на тему
Статистика раздачи [Обновить пиров]
Размер:  1.88 GB   |    Зарегистрирован:  4 дня   |    Скачан:  0 раз

Полного источника не было: Никогда

Личеров:  2  [  0 KB/s  ]   Подробная статистика скачивающих
 
   
 
 
 
Автор Сообщение

torrentc.info

Создавать темы 14-Янв-2018 17:36

[Цитировать]

Опасный полет / Опасен полет / Opasen polet [Советская прокатная копия]- Страна: Болгария
Жанр: шпионский фильм
Год выхода: 1968
Продолжительность: 01:08:35-Перевод: Профессиональный (дублированный) - Киностудия им. Горького
Субтитры: нет-Режиссер: Димитр Петров / Димитър Петров / Dimitar Petrov
В ролях: Невена Коканова, Георги Черкелов, Петр Слабаков, Светослав Пеев, Богомил Симеонов, Найчо Петров, Преслав Петров, Любомир Киселички, Вессела Радоева, Георги Джубрилов, Юрий Яковлев, Ани Спасова...- | : -Описание: По сведениям разведки в Болгарию должен прибыть иностранный агент. Его надо выследить и обезвредить. Американский резидент ЦРУ Джордж Андерсон едет на своей машине транзитом Стамбул – Вена. На границе с Болгарией его уже ждут. Андерсен направляется в Софию. По пути в столицу его плотно опекают болгарские разведчики. Они хотят выяснить, к кому и зачем едет американский резидент. Матерый разведчик в Софии встречается с доктором Белчевой, за которой давно уже следила болгарская разведка…-Семпл: http://sendfile.su/1391224-Тип релиза: Screener
Формат файла: DVD-Video
Видео: PAL 720x576 (4:3) @ 768x576, 25.000 fps, MPEG-2 Video, ~3584 Kbps, 0.346 bits/pixel
Аудио: Русский, 48.0 KHz, AC3, 2 ch, 256 Kbps

DVDInfo

Title: Опасный полёт 1968 Dub ГорькогоSize: 1.88 Gb ( 1 969 580,00 KBytes ) - DVD-5Enabled regions: 1, 2, 3, 4, 5, 6, 7, 8
VTS_01 : Play Length: 01:08:35 Video: PAL 4:3 (720x576) VBR Audio: Russian, AC3, 2/0 (L,R) ch, 256 kbps, Delay 0 mSec

MediaInfo

GeneralComplete name : \Опасный полёт 1968 Dub Горького\VIDEO_TS\VTS_01_1.VOBFormat : MPEG-PSFile size : 1 024 MiBDuration : 36 min 32 sOverall bit rate mode : VariableOverall bit rate : 3 918 kb/s
VideoID : 224 (0xE0)Format : MPEG VideoFormat version : Version 2Format profile : Main@MainFormat settings : CustomMatrix / BVOPFormat settings, BVOP : YesFormat settings, Matrix : CustomFormat settings, GOP : VariableFormat settings, picture structure : FrameDuration : 36 min 32 sBit rate mode : VariableBit rate : 3 584 kb/sMaximum bit rate : 9 500 kb/sWidth : 720 pixelsHeight : 576 pixelsDisplay aspect ratio : 4:3Frame rate : 25.000 FPSStandard : PALColor space : YUVChroma subsampling : 4:2:0Bit depth : 8 bitsScan type : InterlacedScan order : Top Field FirstCompression mode : LossyBits/(Pixel*Frame) : 0.346Time code of first frame : 00:00:00:00Time code source : Group of pictures headerGOP, Open/Closed : OpenGOP, Open/Closed of first frame : ClosedStream size : 937 MiB (91%)
AudioID : 189 (0xBD)-128 (0x80)Format : AC-3Format/Info : Audio Coding 3Format settings, Endianness : BigMuxing mode : DVD-VideoDuration : 36 min 32 sBit rate mode : ConstantBit rate : 256 kb/sChannel(s) : 2 channelsChannel positions : Front: L RSampling rate : 48.0 kHzFrame rate : 31.250 FPS (1536 SPF)Bit depth : 16 bitsCompression mode : LossyStream size : 66.9 MiB (7%)Service kind : Complete Main
Menu


[torrentc.info]_t_5506386.torrent
Торрент: Зарегистрирован ·  [ 2018-01-14 17:36 ] ·  fefdf2d49b9c7591af39e8086bbc8294d92324b1

20 KB

Статус: проверено
Скачан: 0 раз
Размер: 1.88 GB
Оценка: 
(Голосов: 0)
Сказали спасибо: 0  Спасибо
Похожие темы
[Профиль]    [ЛС]
Показать сообщения:    
Ответить на тему

Текущее время: Сегодня 22:57

Часовой пояс: GMT + 7



Вы не можете начинать темы
Вы не можете отвечать на сообщения
Вы не можете редактировать свои сообщения
Вы не можете удалять свои сообщения
Вы не можете голосовать в опросах
Вы не можете прикреплять файлы к сообщениям
Вы можете скачивать файлы