Мошенничество / Мошенники / Il bidone (Федерико Феллини / Federico Fellini) [1955, США, драма, BDRip] MVO + DVO

Ответить на тему
Статистика раздачи [Обновить пиров]
Размер:  2.16 GB   |    Зарегистрирован:  5 месяцев 8 дней   |    Скачан:  0 раз

Полного источника не было: Никогда

 
   
 
 
 
Автор Сообщение

torrentc.info

Создавать темы 13-Янв-2018 18:30

[Цитировать]

Мошенничество / Мошенники / Il bidone
Год выхода: 1955
Страна: США
Жанр: драма
Продолжительность: 01:52:47.767 (162264 frames)
Перевод1: Профессиональный (многоголосый закадровый)
Перевод2: Профессиональный (двухголосый закадровый)
Оригинальная аудиодорожка: нет
Русские субтитры: нет
Режиссер: Федерико Феллини / Federico Fellini
В ролях: Бродерик Кроуфорд, Ричард Бэйзхарт, Франко Фабрици, Джульетта Мазина, Сью Эллен Блейк, Ирена Чефаро, Альберто Де Амичис, Лорелла ДеЛюка, Сара Симони, Джакомо Габриелли, Риккардо Гарроне, Этторе Бевилакуа, Марио Пассанте, Ксения Вальдери, Мария Заноли
Описание: Стареющий мелкий мошенник Августо с двумя напарниками живет тем, что обманывает бедных крестьян. Но напарники однажды оставляют его, чтобы вернуться в свои семьи, и тогда Августо должен собрать новую шайку.
Качество: BDRip
Формат файла: AVI
Видео кодек: XviD
Аудио кодек: АС3
Видео: 720x528 (1.36:1), 23.976 fps, XviD build 73 ~2388 kbps avg, 0.26 bit/pixel
Аудио: 48 kHz, AC3 Dolby Digital, 2/0 (L,R) ch, ~192.00 kbps avg - МВО
Аудио: 48 kHz, AC3 Dolby Digital, 2/0 (L,R) ch, ~160.00 kbps avg - ДВО

Скриншоты

Медиаинфо

E:\004 Мои раздачи\Мошенничество 2,18\moshennichestvo_2.18_[torrentc]_by_bm11.avi
General
Complete name : E:\004 Мои раздачи\Мошенничество 2,18\moshennichestvo_2.18_[torrentc]_by_bm11.avi
Format : AVI
Format/Info : Audio Video Interleave
Format profile : OpenDML
File size : 2.16 GiB
Duration : 1h 52mn
Overall bit rate : 2 747 Kbps
Director : bm11
Writing application : VirtualDubModRus 1.5.10.2 (build 2542/release)
Video
Format : MPEG-4 Visual
Format profile : Streaming Video@L1
Format settings, BVOP : Yes
Format settings, QPel : No
Format settings, GMC : No warppoints
Format settings, Matrix : Custom
Codec ID : XVID
Codec ID/Hint : XviD
Duration : 1h 52mn
Bit rate : 2 377 Kbps
Width : 720 pixels
Height : 528 pixels
Display aspect ratio : 4/3
Frame rate : 23.976 fps
Resolution : 24 bits
Colorimetry : 4:2:0
Scan type : Progressive
Bits/(Pixel*Frame) : 0.261
Stream size : 1.87 GiB (87%)
Writing library : XviD 73
Audio
Format : AC-3
Format/Info : Audio Coding 3
Codec ID : 2000
Duration : 1h 52mn
Bit rate mode : Constant
Bit rate : 192 Kbps
Channel(s) : 2 channels
Channel positions : L R
Sampling rate : 48.0 KHz
Stream size : 155 MiB (7%)
Alignment : Split accross interleaves
Interleave, duration : 42 ms (1.00 video frame)
Interleave, preload duration : 500 ms
Audio
Format : AC-3
Format/Info : Audio Coding 3
Codec ID : 2000
Duration : 1h 52mn
Bit rate mode : Constant
Bit rate : 160 Kbps
Channel(s) : 2 channels
Channel positions : L R
Sampling rate : 48.0 KHz
Stream size : 129 MiB (6%)
Alignment : Split accross interleaves
Interleave, duration : 42 ms (1.00 video frame)
Interleave, preload duration : 500 ms

Источник: Torrentc

http://Torrentc/forum/viewtopic.php?t=4662499


[torrentc.info]_t_5506262.torrent
Торрент: Зарегистрирован ·  [ 2018-01-13 18:30 ] ·  68cb122bfff407d071998f687c7cc290943e6547

11 KB

Статус: проверено
Скачан: 0 раз
Размер: 2.16 GB
Оценка: 
(Голосов: 0)
Сказали спасибо: 0  Спасибо
Похожие темы
[Профиль]    [ЛС]
Показать сообщения:    
Ответить на тему

Текущее время: Сегодня 17:50

Часовой пояс: GMT + 7



Вы не можете начинать темы
Вы не можете отвечать на сообщения
Вы не можете редактировать свои сообщения
Вы не можете удалять свои сообщения
Вы не можете голосовать в опросах
Вы не можете прикреплять файлы к сообщениям
Вы можете скачивать файлы