Обыкновенное чудо (Марк Захаров) [1978, музыкальный, сказка, DVB-AVC] Без реставрации

Ответить на тему
Статистика раздачи [Обновить пиров]
Размер:  2.36 GB   |    Зарегистрирован:  5 месяцев 9 дней   |    Скачан:  0 раз

Полного источника не было: Никогда

 
   
 
 
 
Автор Сообщение

torrentc.info

Создавать темы 13-Янв-2018 16:18

[Цитировать]

Обыкновенное чудо
Жанр: музыкальный, сказка
Год выхода: 1978
Продолжительность: 02:17:28 (01:08:40 + 01:08:48)
Режиссёр: Марк Захаров
В ролях: Олег Янковский, Ирина Купченко, Евгений Леонов, Евгения Симонова, Александр Абдулов, Екатерина Васильева, Юрий Соломин, Андрей Миронов, Ерванд Арзуманян, Всеволод Ларионов, Нина Пушкова, Валентина Воилкова, Владимир Долинский, Андрей Леонов
Описание: История о любви, написанная языком сказки. Налицо все сказочные атрибуты - волшебство, принцесса, заколдованный юноша. Только поцелуй принцессы не превратит юношу в принца, а вернет ему облик медведя. Это условие мешает влюблённым пожениться и жить долго и счастливо.-Доп. информация: запись с IPTV в Беларуси, ремукс записи потока *.ts в *.mkv программой VideoReDo.
Версия фильма без реставрации. Подробнее - под спойлером "Источник: Torrentc".
Производство: Мосфильм при участии Гостелерадио СССР
Сценарий: Евгений Шварц, Марк Захаров
Оператор: Николай Немоляев
Художник: Людмила Кусакова
Композитор: Геннадий Гладков
Семпл: http://sendfile.su/1391031
Качество видео: DVB
Формат файла: MKV
Видео: AVC (H264), 720x576@785x576 (4:3), анаморф, 25 fps, 2131-2307 kbps
Аудио: MP2, 192 kbps, 2 channels, 48 kHz

Источник: Torrentc

http://Torrentc/forum/viewtopic.php?t=136238
Следует отметить, что данная версия в отдельных эпизодах более тёмная:
Интересна совершенно иной колоризацией отдельных эпизодов:
Присутствуют дефекты плёнки:

MediaInfoСерия 1

GeneralUnique ID : 209178174157419856334725048766311420936 (0x9D5E403D17C275DC409B3C8C074BD408)Complete name : D:\Work\Video\Обыкновенное чудо\Обыкновенное чудо. Серия 1.mkvFormat : MatroskaFormat version : Version 2File size : 1.14 GiBDuration : 1 h 8 minOverall bit rate : 2 371 kb/sWriting application : Lavf54.63.104Writing library : Lavf54.63.104
VideoID : 1Format : AVCFormat/Info : Advanced Video CodecFormat profile : High@L3Format settings, CABAC : YesFormat settings, ReFrames : 4 framesCodec ID : V_MPEG4/ISO/AVCDuration : 1 h 8 minBit rate : 2 131 kb/sWidth : 720 pixelsHeight : 576 pixelsDisplay aspect ratio : 4:3Original display aspect ratio : 4:3Frame rate mode : ConstantFrame rate : 25.000 FPSStandard : ComponentColor space : YUVChroma subsampling : 4:2:0Bit depth : 8 bitsScan type : InterlacedScan type, store method : Separated fieldsScan order : Top Field FirstBits/(Pixel*Frame) : 0.206Stream size : 1.02 GiB (90%)Default : NoForced : NoColor range : LimitedColor primaries : BT.601 PALTransfer characteristics : BT.470 System B, BT.470 System GMatrix coefficients : BT.601
AudioID : 2Format : MPEG AudioFormat version : Version 1Format profile : Layer 2Codec ID : A_MPEG/L2Codec ID/Hint : MP2Duration : 1 h 8 minBit rate mode : ConstantBit rate : 192 kb/sChannel(s) : 2 channelsSampling rate : 48.0 kHzCompression mode : LossyStream size : 94.3 MiB (8%)Language : RussianDefault : YesForced : No

Серия 2

GeneralUnique ID : 893993997782126015203043112735701892 (0xAC2D4EA1302628EB026D26984F7B84)Complete name : D:\Work\Video\Обыкновенное чудо\Обыкновенное чудо. Серия 2.mkvFormat : MatroskaFormat version : Version 2File size : 1.23 GiBDuration : 1 h 8 minOverall bit rate : 2 550 kb/sWriting application : Lavf54.63.104Writing library : Lavf54.63.104
VideoID : 1Format : AVCFormat/Info : Advanced Video CodecFormat profile : High@L3Format settings, CABAC : YesFormat settings, ReFrames : 4 framesCodec ID : V_MPEG4/ISO/AVCDuration : 1 h 8 minBit rate : 2 307 kb/sWidth : 720 pixelsHeight : 576 pixelsDisplay aspect ratio : 4:3Original display aspect ratio : 4:3Frame rate mode : ConstantFrame rate : 25.000 FPSStandard : ComponentColor space : YUVChroma subsampling : 4:2:0Bit depth : 8 bitsScan type : InterlacedScan type, store method : Separated fieldsScan order : Top Field FirstBits/(Pixel*Frame) : 0.223Stream size : 1.11 GiB (90%)Default : NoForced : NoColor range : LimitedColor primaries : BT.601 PALTransfer characteristics : BT.470 System B, BT.470 System GMatrix coefficients : BT.601
AudioID : 2Format : MPEG AudioFormat version : Version 1Format profile : Layer 2Codec ID : A_MPEG/L2Codec ID/Hint : MP2Duration : 1 h 8 minBit rate mode : ConstantBit rate : 192 kb/sChannel(s) : 2 channelsSampling rate : 48.0 kHzCompression mode : LossyStream size : 94.5 MiB (8%)Language : RussianDefault : YesForced : No


[torrentc.info]_t_5506060.torrent
Торрент: Зарегистрирован ·  [ 2018-01-13 16:18 ] ·  482bc3e00665077ecd57db6c7226b3af2ba51a2b

12 KB

Статус: проверено
Скачан: 0 раз
Размер: 2.36 GB
Оценка: 
(Голосов: 0)
Сказали спасибо: 0  Спасибо
Похожие темы
[Профиль]    [ЛС]
Показать сообщения:    
Ответить на тему

Текущее время: Сегодня 17:55

Часовой пояс: GMT + 7



Вы не можете начинать темы
Вы не можете отвечать на сообщения
Вы не можете редактировать свои сообщения
Вы не можете удалять свои сообщения
Вы не можете голосовать в опросах
Вы не можете прикреплять файлы к сообщениям
Вы можете скачивать файлы