Сказка сказывается (Иван Аксенчук) [1970, Мультфильм рисованный, DVDRip]

Ответить на тему
Статистика раздачи [Обновить пиров]
Размер:  343 MB   |    Зарегистрирован:  5 месяцев 12 дней   |    Скачан:  0 раз

Полного источника не было: Никогда

 
   
 
 
 
Автор Сообщение

torrentc.info

Создавать темы 11-Янв-2018 04:42

[Цитировать]

Сказка сказываетсяСтрана: СССР
Жанр: Мультфильм
Продолжительность: ~ 00:18:25
Год выхода: 1970
Выпущено: «Союзмультфильм»
Режиссёр: Иван Аксенчук
Русские субтитры: нетОписание:По мотивам русских народных сказок о Кощее Бессмертном, Иванушке и Василисе Прекрасной.
Кощей Бессмертный украл Василису Прекрасную и спрятал в своём замке. Царевич должен выручить её из плена, да только не хочет свои руки царские замарать. У него же есть верный слуга Иванушка, который и возьмёт все опасности на себя. А потрудиться Ивану придётся: и меч-кладенец найти, и с водяным договориться, и живой волос с мёртвым испытать.Цитаты:— Пойди найди тот ножичек… пойди найди тот ножичек…
— Здорóво, матушка! Я у тебя тут прибраться немного попробовал. От такой-то грязи и вправду на людей начнёшь бросаться.
— Я тебя!.. я тебя!.. съем!..
— Сначала остыть и умыться надо. Ишь, распустилась… Костяной нога — это ещё не причина!
— Ух ты! А ничего-о!.. Вроде, получше будет.
— Прелесть бабка получилась!
— И чего это твоему братцу этот меч так нужен?
— И не говори! Сколько я людей из-за этого погубила — ужас! Даже изжога появилась… Знаю только, что им сову убить можно. Лису тоже... А вот на дракона он не действует, нет. А какую сову, какого дракона — не знаю, сынок. Я ведь в семье — младшенькая…
— По подвигу и награда.

Режиссёр и команда

Режиссёр: Иван Аксенчук
сценарист: Борис Ларин
художники-постановщики: Борис Акулиничев, Иван Аксенчук, Галина Зеброва
художники- мультипликаторы: Михаил Першин, Олег Сафронов, Рената Миренкова, Антонина Алёшина, Владимир Арбеков, Владимир Зарубин, Леонид Каюков, Фёдор Елдинов, Елена Малашенкова
оператор: Михаил Друян
директор: Фёдор Иванов
композитор: Евгений Ботяров
звукооператор: Георгий Мартынюк
редактор: Раиса Фричинская
монтажёр: И. Герасимова
роли озвучивали: Георгий Милляр (Кощей Бессмертный), Нина Гуляева (Василиса), Клара Румянова (Баба Яга), Владимир Трошин (Иванушка), Анатолий Папанов (Царевич), Александр Ханов (Водяной / Дракон).
Качество: DVDRip
Формат файла: AVI
Видео кодек: XviD
Аудио кодек: AC3
Видео: 720x544 (1.32:1), 25 fps, XviD build 64 ~2400 kbps avg, 0.25 bit/pixel
Аудио: 48 kHz, AC3 Dolby Digital, 2/0 (L,R) ch, ~192 kbps
Субтитры: отсутствуют

Подробные технические данные

ОбщееПолное имя : D:\Мульты\Сказка сказывается.aviФормат файла : AVIФормат файла/Информация : Audio Video InterleaveРазмер файла : 343 МбайтПродолжительность : 18 м.Общий поток : 2602 Кбит/секПрограмма кодирования : VirtualDubMod 1.5.10.2 (build 2540/release)Библиотека кодирования : VirtualDubMod build 2540/release
ВидеоИдентификатор : 0Формат файла : MPEG-4 VisualПрофиль формата : Advanced Simple@L5Параметр BVOP формата : 2Параметр QPel формата : НетПараметр GMC формата : Без точки переходаПараметр матрицы формата : ВыборочнаяИдентификатор кодека : XVIDИдентификатор кодека/Подсказка : XviDПродолжительность : 18 м.Битрейт : 2400 Кбит/секШирина : 720 пикселейВысота : 544 пикселяСоотношение сторон : 4:3Частота кадров : 25,000 кадров/секЦветовое пространство : YUVСубдискретизация насыщенности : 4:2:0Битовая глубина : 8 битТип развёртки : ПрогрессивнаяМетод сжатия : С потерямиБит/(Пиксели*Кадры) : 0.245Размер потока : 316 Мбайт (92%)Библиотека кодирования : XviD 64
АудиоИдентификатор : 1Формат файла : AC-3Формат файла/Информация : Audio Coding 3Расширение режима : CM (complete main)Идентификатор кодека : 2000Продолжительность : 18 м.Вид битрейта : ПостоянныйБитрейт : 192 Кбит/секКаналы : 2 каналаРасположение каналов : Front: L RЧастота : 48,0 КГцБитовая глубина : 16 битМетод сжатия : С потерямиРазмер потока : 25,3 Мбайт (7%)Выравнивание : Разделение по промежуткамПродолжительность промежутка : 40 мс. (1,00 видеокадр)Время предзагрузки промежутка : 500 мс.
Subtitles: Not Present

Скриншоты

-Источник: Torrentc с другой раздачей:
"Сказка сказывается" (Nyc-2008, 704x528, XviD, ~2387 kbps)- [url=tracker.php?rid=1126257#results]Все раздачи[/url]


[torrentc.info]_t_5505146.torrent
Торрент: Зарегистрирован ·  [ 2018-01-11 04:42 ] ·  194e6482acb3158e9f3b3b5ccc64678a9cfc02db

14 KB

Статус: проверено
Скачан: 0 раз
Размер: 343 MB
Оценка: 
(Голосов: 0)
Сказали спасибо: 0  Спасибо
Похожие темы
[Профиль]    [ЛС]
Показать сообщения:    
Ответить на тему

Текущее время: Сегодня 17:57

Часовой пояс: GMT + 7



Вы не можете начинать темы
Вы не можете отвечать на сообщения
Вы не можете редактировать свои сообщения
Вы не можете удалять свои сообщения
Вы не можете голосовать в опросах
Вы не можете прикреплять файлы к сообщениям
Вы можете скачивать файлы