Повелитель (ТВ-1) / Overlord [TV+Special] [без хардсаба] [1-8+8 из 13+8] [JAP+SUB] & [1-8+0 из 13+8] [RUS(ext)] [2015, приключения, фэнтези, BDRip] [1080p]

Ответить на тему
Статистика раздачи [Обновить пиров]
Размер:  18.07 GB   |    Зарегистрирован:  5 месяцев 14 дней   |    Скачан:  0 раз

Полного источника не было: Никогда

 
   
 
 
 
Автор Сообщение

torrentc.info

Создавать темы 07-Янв-2018 20:56

[Цитировать]

- Страна: Япония
Год выхода: 2015
Жанр: приключения, фэнтези
Тип: TV+Special
Продолжительность: ТВ (13 эп.), по ~24 мин. + спэшлы (8 эп.), по 3 мин.-Режиссер: Ито Наоюки
Студия
: -Перевод:
  • русские субтитры от Night (полные) | .ass, внешние
-Озвучка:
  • двухголосая (муж./жен.) от NIKITOS & NesTea (SHIZA) | .mka, внешние
  • двухголосая (муж./жен.) от Zendos & Eladiel (Onibaku) | .mka, внешние
-Описание: Бежать из тягостной повседневности, покорить дивный новый мир, стать неуязвимым и бессмертным суперменом – такова мечта пресловутого «офисного планктона». Типичный его представитель, сражавшийся в недалеком будущем в виртуальную РПГ «Иггдрасиль» под ником Момонга, не захотел покидать закрывающуюся игру. Зачем же уходить из обжитой иллюзии, если можно даром получить целый мир для себя, любимого?!
И вот она у твоих ног – иная реальность, что рождается в мировом ничто, а неигровые персонажи, бездушные программы на глазах обретают сюжетную плоть и кровь. Кого волнует, что приходится странствовать в образе костлявого лича? Ведь ты всемогущ, прикажи – и красотка Альбедо воспылает страстью, а вампирша Шальтир будет ее отчаянно ревновать. Не стоит размышлять, Будда ты или бабочка на цветке лотоса: бей, руби, люби – в сказке можно все!
© Hollow, World Art-Информационные ссылки: AniDB || World Art || MAL-Качество: BDRip
Автор рипа: Urotsuki [Beatrice-Raws]
Тип видео: без хардсаба, без линковки
Формат файла: MKV

Видео: x264, 10 бит, 1920x1080, 23.976 кадра/сек, 10,6 Мбит/сек
Аудио JAP: FLAC, 48,0 КГц, 2 канала, 657 Кбит/сек
Аудио RUS 1-2 (ext): AC3, 48,0 КГц, 2 канала, ~192 Кбит/сек-

Подробные тех. данные

ОбщееУникальный идентификатор : 100530205996152042218765586197651509400 (0x4BA169D4DDEB1A1CEE89BBA1B55DD098)Полное имя : ..\[Beatrice-Raws] Overlord [BDRip 1920x1080 x264 FLAC]\[Beatrice-Raws] Overlord 01 [BDRip 1920x1080 x264 FLAC].mkvФормат файла : MatroskaВерсия формата : Version 4 / Version 2Размер файла : 1,91 ГбайтПродолжительность : 24 м. 14 с.Режим общего битрейта : ПеременныйОбщий поток : 11,3 Мбит/секДата кодирования : UTC 2017-12-23 09:45:53Программа кодирования : mkvmerge v19.0.0 ('Brave Captain') 64-bitБиблиотека кодирования : libebml v1.3.5 + libmatroska v1.4.8
ВидеоИдентификатор : 1Формат файла : AVCФормат файла/Информация : Advanced Video CodecПрофиль формата : High 10@L5Настройки формата : CABAC / 4 Ref FramesПараметр CABAC формата : ДаПараметр RefFrames формата : 4 кадраИдентификатор кодека : V_MPEG4/ISO/AVCПродолжительность : 24 м. 14 с.Битрейт : 10,6 Мбит/секШирина : 1920 пикселейВысота : 1080 пикселейСоотношение сторон : 16:9Режим частоты кадров : ПостоянныйЧастота кадров : 23,976 (24000/1001) кадра/секЦветовое пространство : YUVСубдискретизация насыщенности : 4:2:0Битовая глубина : 10 битТип развёртки : ПрогрессивнаяБит/(Пиксели*Кадры) : 0.214Размер потока : 1,80 Гбайт (94%)Заголовок : BDRip by UrotsukiБиблиотека кодирования : x264 core 152 r2851M ba24899 (DJATOM's build)Настройки программы : cabac=1 / ref=4 / deblock=1:1:-1 / analyse=0x3:0x113 / me=umh / subme=9 / psy=1 / psy_rd=1.00:0.00 / mixed_ref=1 / me_range=32 / chroma_me=1 / trellis=2 / 8x8dct=1 / cqm=0 / deadzone=21,11 / fast_pskip=1 / chroma_qp_offset=-2 / threads=6 / lookahead_threads=1 / sliced_threads=0 / nr=0 / decimate=1 / interlaced=0 / bluray_compat=0 / constrained_intra=0 / bframes=9 / b_pyramid=2 / b_adapt=2 / b_bias=0 / direct=1 / weightb=1 / open_gop=0 / weightp=2 / keyint=240 / keyint_min=23 / scenecut=40 / intra_refresh=0 / rc=crf / mbtree=0 / crf=15.0000 / qcomp=0.72 / qpmin=0 / qpmax=81 / qpstep=4 / ip_ratio=1.40 / pb_ratio=1.30 / aq=1:0.85Язык : JapaneseDefault : ДаForced : НетЦветовой диапазон : LimitedОсновные цвета : BT.709Характеристики трансфера : BT.709Коэффициенты матрицы : BT.709
АудиоИдентификатор : 2Формат файла : FLACФормат файла/Информация : Free Lossless Audio CodecИдентификатор кодека : A_FLACПродолжительность : 24 м. 14 с.Вид битрейта : ПеременныйБитрейт : 657 Кбит/секКаналы : 2 каналаРасположение каналов : Front: L RЧастота : 48,0 КГцЧастота кадров : 11,719 кадров/сек (4096 SPF)Битовая глубина : 16 битРазмер потока : 114 Мбайт (6%)Заголовок : LPCM->FLACБиблиотека кодирования : libFLAC 1.3.2 (UTC 2017-01-01)Язык : JapaneseDefault : ДаForced : Нет
Меню00:00:00.000 : en:Avant00:01:45.021 : en:OP00:03:14.986 : en:Part A00:10:00.975 : en:Part B00:22:09.995 : en:ED00:23:40.001 : en:Next

Список эпизодов

01. End and Beginning
02. Floor Guardians
03. Battle of Carne Village
04. Ruler of Death
05. Two Venturers
06. Journey
07. Wise King of Forest
08. Twin Swords of Slashing Death

09. The Dark Warrior
10. True Vampire
11. Confusion and Understanding
12. The Bloody Valkyrie
13. Player vs Non Player Character

Special

Pure Pure Pleiades: Play 1 - Overd and Beginning
Pure Pure Pleiades: Play 2 - Battle Maids
Pure Pure Pleiades: Play 3 - Cutting Through the Lies with Fists
Pure Pure Pleiades: Play 4 - Two Victims
Pure Pure Pleiades: Play 5 - A Predator`s Heart
Pure Pure Pleiades: Play 6 - Battle Outside of Carne Village
Pure Pure Pleiades: Play 7 - Before the Cannon
Pure Pure Pleiades: Play 8 - Control and Chaos

Скриншоты

-

Инструкция по просмотру

В: Чем смотреть?
О: Как смотреть 10-битное видео (10-bit)-В: Как посмотреть с озвучкой?
О: Скопировать файлы из папки "RUS Sound/(нужный вариант)" в одну папку с видео, и переключить звуковую дорожку в плеере при просмотре. Либо открыть внешнюю аудиодорожку при просмотре видео (если такая функция есть в плеере). Как это сделать в разных плеерах можно узнать здесь.-В: Как посмотреть с субтитрами?
О: Если плеер не подключил субтитры автоматически, то нужно скопировать файлы из папки "RUS Subs" в одну папку с видео. Либо открыть внешние субтитры при просмотре видео (если такая функция есть в плеере).


[torrentc.info]_t_5499846.torrent
Торрент: Зарегистрирован ·  [ 2018-01-07 20:54 ] ·  2d424c7f07a769d976a9f7e73d70a0f93ea10e44

96 KB

Статус: проверено
Скачан: 0 раз
Размер: 18.07 GB
Оценка: 
(Голосов: 0)
Сказали спасибо: 0  Спасибо
Похожие темы
[Профиль]    [ЛС]
Показать сообщения:    
Ответить на тему

Текущее время: Сегодня 17:53

Часовой пояс: GMT + 7



Вы не можете начинать темы
Вы не можете отвечать на сообщения
Вы не можете редактировать свои сообщения
Вы не можете удалять свои сообщения
Вы не можете голосовать в опросах
Вы не можете прикреплять файлы к сообщениям
Вы можете скачивать файлы