(Jazz, Big Band, Swing, Bop) [CD] Maynard Ferguson and His Big Bop Nouveau Band - The One And Only Maynard Ferguson - 2007, FLAC (tracks+.cue), lossless

Ответить на тему
Статистика раздачи [Обновить пиров]
Размер:  392 MB   |    Зарегистрирован:  6 месяцев 12 дней   |    Скачан:  0 раз
Сидеров:  1  [  0 KB/s  ]   Личеров:  1  [  0 KB/s  ]   Подробная статистика скачивающих
 
   
 
 
 
Автор Сообщение

torrentc.info

Создавать темы 04-Янв-2018 22:55

[Цитировать]

-Maynard Ferguson and His Big Bop Nouveau Band - The One And Only Maynard Ferguson - 2007- Жанр: Jazz, Big Band, Swing, Bop
Носитель: CD (compilation, archival)
Страна-производитель диска (релиза): US
Год издания оригинала: 2007
Издатель (лейбл): Maynard Ferguson Trust
Номер по каталогу: No Number
Страна исполнителя (группы) : US
Дата / место записи: Bennett Studios in Englewood, NJ
Аудио кодек: FLAC (*.flac)
Тип рипа: (tracks + .cue)
Битрейт аудио: lossless
Наличие сканов в содержимом раздачи: full scans
Продолжительность: 1:04:46
Источник (релизер): REDacted
Трэклист:
1. Without a Song - 8:40
2. Besame Mucho - 5:04
3. Ain't No Sunshine When She's Gone - 10:35
4. Vita Bella - 5:11
5. Dr. Fox Ph.D. - 4:45
6. Lost Horizons - 9:06
7. Surviving Soho - 5:59
8. The Days of Wine and Roses - 8:02
9. Darn That Dream - 7:20

Лог создания рипа

Exact Audio Copy V1.1 from 23. June 2015
EAC extraction logfile from 29. May 2017, 15:47
Maynard Ferguson / The One And Only Maynard Ferguson
Used drive : HL-DT-STDVD+-RW GHB0N Adapter: 1 ID: 1
Read mode : SecureUtilize accurate stream : YesDefeat audio cache : YesMake use of C2 pointers : No
Read offset correction : 6Overread into Lead-In and Lead-Out : NoFill up missing offset samples with silence : YesDelete leading and trailing silent blocks : NoNull samples used in CRC calculations : YesUsed interface : Native Win32 interface for Win NT & 2000Gap handling : Appended to previous track
Used output format : User Defined EncoderSelected bitrate : 768 kBit/sQuality : HighAdd ID3 tag : NoCommand line compressor : C:\Program Files (x86)\Exact Audio Copy\FLAC\FLAC.EXEAdditional command line options : -8 -V -T "ARTIST=%artist%" -T "TITLE=%title%" -T "ALBUM=%albumtitle%" -T "DATE=%year%" -T "TRACKNUMBER=%tracknr%" -T "TOTALTRACKS=%numtracks%" -T "GENRE=%genre%" -T "ALBUMARTIST=%albumartist%" -T "ALBUM ARTIST=%albumartist%" -T "COMMENT=EAC Secure Mode, Test & Copy, AccurateRip, FLAC -8" %source%
TOC of the extracted CD
Track | Start | Length | Start sector | End sector --------------------------------------------------------- 1 | 0:00.00 | 8:40.42 | 0 | 39041 2 | 8:40.42 | 5:04.11 | 39042 | 61852 3 | 13:44.53 | 10:35.60 | 61853 | 109537 4 | 24:20.38 | 5:11.10 | 109538 | 132872 5 | 29:31.48 | 4:45.54 | 132873 | 154301 6 | 34:17.27 | 9:06.26 | 154302 | 195277 7 | 43:23.53 | 5:59.26 | 195278 | 222228 8 | 49:23.04 | 8:02.69 | 222229 | 258447 9 | 57:25.73 | 7:20.07 | 258448 | 291454
Track 1
Filename F:\Torrents\Downloads\Maynard Ferguson - The One And Only Maynard Ferguson (2007) [FLAC] {\01 - Without A Song.wav
Pre-gap length 0:00:02.00
Peak level 93.9 % Extraction speed 1.1 X Track quality 99.9 % Test CRC DC15C442 Copy CRC DC15C442 Accurately ripped (confidence 5) [BD8A3990] (AR v1) Copy OK
Track 2
Filename F:\Torrents\Downloads\Maynard Ferguson - The One And Only Maynard Ferguson (2007) [FLAC] {\02 - Besame Mucho.wav
Pre-gap length 0:00:02.00
Peak level 98.6 % Extraction speed 1.3 X Track quality 100.0 % Test CRC 144E3FCC Copy CRC 144E3FCC Accurately ripped (confidence 5) [5E777E67] (AR v1) Copy OK
Track 3
Filename F:\Torrents\Downloads\Maynard Ferguson - The One And Only Maynard Ferguson (2007) [FLAC] {\03 - Ain't No Sunshine When She's Gone.wav
Pre-gap length 0:00:01.37
Peak level 94.4 % Extraction speed 1.5 X Track quality 99.9 % Test CRC 495B5D79 Copy CRC 495B5D79 Accurately ripped (confidence 5) [8FD28302] (AR v1) Copy OK
Track 4
Filename F:\Torrents\Downloads\Maynard Ferguson - The One And Only Maynard Ferguson (2007) [FLAC] {\04 - Vita Bella.wav
Pre-gap length 0:00:01.37
Peak level 93.9 % Extraction speed 1.6 X Track quality 100.0 % Test CRC A165840C Copy CRC A165840C Accurately ripped (confidence 5) [73F5CFCA] (AR v1) Copy OK
Track 5
Filename F:\Torrents\Downloads\Maynard Ferguson - The One And Only Maynard Ferguson (2007) [FLAC] {\05 - Dr. Fox Ph.D..wav
Pre-gap length 0:00:02.00
Peak level 94.8 % Extraction speed 1.7 X Track quality 100.0 % Test CRC 5FC92D7A Copy CRC 5FC92D7A Accurately ripped (confidence 5) [B1CEBF83] (AR v1) Copy OK
Track 6
Filename F:\Torrents\Downloads\Maynard Ferguson - The One And Only Maynard Ferguson (2007) [FLAC] {\06 - Lost Horizons.wav
Pre-gap length 0:00:01.37
Peak level 95.5 % Extraction speed 1.9 X Track quality 100.0 % Test CRC D489B1F0 Copy CRC D489B1F0 Accurately ripped (confidence 5) [9F247DF0] (AR v1) Copy OK
Track 7
Filename F:\Torrents\Downloads\Maynard Ferguson - The One And Only Maynard Ferguson (2007) [FLAC] {\07 - Surviving Soho.wav
Pre-gap length 0:00:02.00
Peak level 95.8 % Extraction speed 2.0 X Track quality 100.0 % Test CRC 622759A2 Copy CRC 622759A2 Accurately ripped (confidence 5) [91B91AC0] (AR v1) Copy OK
Track 8
Filename F:\Torrents\Downloads\Maynard Ferguson - The One And Only Maynard Ferguson (2007) [FLAC] {\08 - The Days Of Wine And Roses.wav
Pre-gap length 0:00:01.50
Peak level 90.0 % Extraction speed 2.2 X Track quality 100.0 % Test CRC 1CC4105D Copy CRC 1CC4105D Accurately ripped (confidence 5) [3BDCD10B] (AR v1) Copy OK
Track 9
Filename F:\Torrents\Downloads\Maynard Ferguson - The One And Only Maynard Ferguson (2007) [FLAC] {\09 - Darn That Dream.wav
Pre-gap length 0:00:02.00
Peak level 90.6 % Extraction speed 2.3 X Track quality 100.0 % Test CRC 74008DBA Copy CRC 74008DBA Accurately ripped (confidence 5) [F1261B91] (AR v1) Copy OK
All tracks accurately ripped
No errors occurred
End of status report
---- CUETools DB Plugin V2.1.6
[CTDB TOCID: _t0WKsB2AoCJ9pTctZ4eVSVhOmw-] foundSubmit result: _t0WKsB2AoCJ9pTctZ4eVSVhOmw- has been confirmedTrack | CTDB Status 1 | (3/3) Accurately ripped 2 | (3/3) Accurately ripped 3 | (3/3) Accurately ripped 4 | (3/3) Accurately ripped 5 | (3/3) Accurately ripped 6 | (3/3) Accurately ripped 7 | (3/3) Accurately ripped 8 | (3/3) Accurately ripped 9 | (3/3) Accurately ripped
==== Log checksum 06B56C243DDA08347DB1A817F0BE0B5F17F5DB8811429FF97296018FF8B6A2A2 ====

Содержание индексной карты (.CUE):

REM GENRE JazzREM DATE 2007REM DISCID 7F0F2E09REM COMMENT "ExactAudioCopy v1.1"PERFORMER "Maynard Ferguson"TITLE "The One And Only Maynard Ferguson"FILE "01 - Without A Song.wav" WAVE TRACK 01 AUDIO TITLE "Without A Song" PERFORMER "Maynard Ferguson" FLAGS DCP INDEX 01 00:00:00 TRACK 02 AUDIO TITLE "Besame Mucho" PERFORMER "Maynard Ferguson" FLAGS DCP INDEX 00 08:38:42FILE "02 - Besame Mucho.wav" WAVE INDEX 01 00:00:00 TRACK 03 AUDIO TITLE "Ain't No Sunshine When She's Gone" PERFORMER "Maynard Ferguson" FLAGS DCP INDEX 00 05:02:49FILE "03 - Ain't No Sunshine When She's Gone.wav" WAVE INDEX 01 00:00:00 TRACK 04 AUDIO TITLE "Vita Bella" PERFORMER "Maynard Ferguson" FLAGS DCP INDEX 00 10:34:23FILE "04 - Vita Bella.wav" WAVE INDEX 01 00:00:00 TRACK 05 AUDIO TITLE "Dr. Fox Ph.D." PERFORMER "Maynard Ferguson" FLAGS DCP INDEX 00 05:09:10FILE "05 - Dr. Fox Ph.D..wav" WAVE INDEX 01 00:00:00 TRACK 06 AUDIO TITLE "Lost Horizons" PERFORMER "Maynard Ferguson" FLAGS DCP INDEX 00 04:44:17FILE "06 - Lost Horizons.wav" WAVE INDEX 01 00:00:00 TRACK 07 AUDIO TITLE "Surviving Soho" PERFORMER "Maynard Ferguson" FLAGS DCP INDEX 00 09:04:26FILE "07 - Surviving Soho.wav" WAVE INDEX 01 00:00:00 TRACK 08 AUDIO TITLE "The Days Of Wine And Roses" PERFORMER "Maynard Ferguson" FLAGS DCP INDEX 00 05:57:51FILE "08 - The Days Of Wine And Roses.wav" WAVE INDEX 01 00:00:00 TRACK 09 AUDIO TITLE "Darn That Dream" PERFORMER "Maynard Ferguson" FLAGS DCP INDEX 00 08:00:69FILE "09 - Darn That Dream.wav" WAVE INDEX 01 00:00:00

Лог проверки качества

-----------------------
DON'T MODIFY THIS FILE
-----------------------
PERFORMER: auCDtect Task Manager, ver. 1.6.0 RC1 build 1.6.0.1Copyright (c) 2008-2010 y-soft. All rights reservedhttp://y-soft.org
ANALYZER: auCDtect: CD records authenticity detector, version 0.8.2Copyright (c) 2004 Oleg Berngardt. All rights reserved.Copyright (c) 2004 Alexander Djourik. All rights reserved.
FILE: 09 - Darn That Dream.flac Size: 36765190 Hash: 98B198503F51CD966568D1A27444BAE5 Accuracy: -m0 Conclusion: CDDA 100% Signature: 8D4216E095288B4C2CA6F1DE66E7AB49FC3C7FCDFILE: 08 - The Days Of Wine And Roses.flac Size: 49197452 Hash: 9F44D69B0683A9ADD03F662B971639BD Accuracy: -m0 Conclusion: CDDA 100% Signature: 89FE7B44D6C4183E9D729470ED1F3485C77ACFFEFILE: 07 - Surviving Soho.flac Size: 43952354 Hash: 6B33FD048025A96C0E0AD4E7EC281DD4 Accuracy: -m0 Conclusion: CDDA 100% Signature: 608D5D567F1BB5969C08FE2C0C1498BDD2342524FILE: 06 - Lost Horizons.flac Size: 49004496 Hash: B7463ECC3CF1D9DEB1890E7652E91169 Accuracy: -m0 Conclusion: CDDA 100% Signature: 405DC8F75B6A0FDE8DC8F514490B34E254867FFEFILE: 05 - Dr. Fox Ph.D..flac Size: 34099963 Hash: 18BE71279F281CA38ED57E399B8FEA2C Accuracy: -m0 Conclusion: CDDA 100% Signature: 672B6D21EC2ED96B707934D231D6E6391195FF67FILE: 04 - Vita Bella.flac Size: 32012693 Hash: DB1C86AFBC14A811B2E38B49101AA589 Accuracy: -m0 Conclusion: CDDA 99% Signature: D8BD88762541F647F73B9B544186D0B30F8C4661FILE: 03 - Ain't No Sunshine When She's Gone.flac Size: 67722446 Hash: DC6B6437812AA9A599D726643CF7D8AD Accuracy: -m0 Conclusion: CDDA 99% Signature: 722448EEA04FB2157F2426AE4B2EBA4FDEB736E3FILE: 02 - Besame Mucho.flac Size: 36081534 Hash: 4D1D773899BBD0A60BCA078C537C9B88 Accuracy: -m0 Conclusion: CDDA 100% Signature: 9AF6A9A93BDDA317D1C3CF759A5CE1259D31CF5CFILE: 01 - Without A Song.flac Size: 57089913 Hash: 18443F76FEA0EE092DF26AFA768C7F48 Accuracy: -m0 Conclusion: CDDA 100% Signature: 2EEAC2CF93FC79BA545D54A1954F5474CD815803

Лог CUETools

[CUETools log; Date: 12/28/2017 8:34:34 PM; Version: 2.1.5][CTDB TOCID: _t0WKsB2AoCJ9pTctZ4eVSVhOmw-] found.Track | CTDB Status 1 | (6/6) Accurately ripped 2 | (6/6) Accurately ripped 3 | (6/6) Accurately ripped 4 | (6/6) Accurately ripped 5 | (6/6) Accurately ripped 6 | (6/6) Accurately ripped 7 | (6/6) Accurately ripped 8 | (6/6) Accurately ripped 9 | (6/6) Accurately ripped[AccurateRip ID: 00165aba-00a2ec55-7f0f2e09] found.Track [ CRC | V2 ] Status 01 [bd8a3990|f8088414] (5+0/5) Accurately ripped 02 [5e777e67|bea8416b] (5+0/5) Accurately ripped 03 [8fd28302|c8cb79fd] (5+0/5) Accurately ripped 04 [73f5cfca|658a977d] (5+0/5) Accurately ripped 05 [b1cebf83|1ba5bc65] (5+0/5) Accurately ripped 06 [9f247df0|4ede5c12] (5+0/5) Accurately ripped 07 [91b91ac0|03c47dca] (5+0/5) Accurately ripped 08 [3bdcd10b|e065e83d] (5+0/5) Accurately ripped 09 [f1261b91|0b93d439] (5+0/5) Accurately ripped
Track Peak [ CRC32 ] [W/O NULL] [ LOG ] -- 98.6 [F593F815] [22D2825C] 01 93.9 [DC15C442] [C71BCF8F] CRC32 02 98.6 [144E3FCC] [7FA3A907] CRC32 03 94.4 [495B5D79] [012320E8] CRC32 04 93.9 [A165840C] [B48BACA6] CRC32 05 94.8 [5FC92D7A] [9C508E10] CRC32 06 95.5 [D489B1F0] [1D8C3769] CRC32 07 95.8 [622759A2] [078D41BC] CRC32 08 90.0 [1CC4105D] [90DDFDDE] CRC32 09 90.6 [74008DBA] [6F7330D4] CRC32

Замер динамического диапазона

foobar2000 1.3.10 / Замер динамического диапазона (DR) 1.1.1Дата отчёта: 2017-12-29 06:20:13
--------------------------------------------------------------------------------Анализ: Maynard Ferguson / The One And Only Maynard Ferguson--------------------------------------------------------------------------------
DR Пики RMS Продолжительность трека--------------------------------------------------------------------------------DR12 -0.55 дБ -15.85 дБ 8:41 01-Without A SongDR11 -0.12 дБ -15.01 дБ 5:04 02-Besame MuchoDR12 -0.49 дБ -15.63 дБ 10:36 03-Ain't No Sunshine When She's GoneDR12 -0.54 дБ -16.89 дБ 5:11 04-Vita BellaDR11 -0.46 дБ -15.48 дБ 4:46 05-Dr. Fox Ph.D.DR13 -0.40 дБ -17.88 дБ 9:06 06-Lost HorizonsDR12 -0.37 дБ -14.79 дБ 5:59 07-Surviving SohoDR14 -0.91 дБ -18.13 дБ 8:03 08-The Days Of Wine And RosesDR14 -0.86 дБ -19.43 дБ 7:20 09-Darn That Dream--------------------------------------------------------------------------------
Количество треков: 9Реальные значения DR: DR12
Частота: 44100 ГцКаналов: 2Разрядность: 16Битрейт: 668 кбит/сКодек: FLAC================================================================================
-

Back

Диск

Состав

Maynard Ferguson: trumpet, flugelhorn;
Wayne Bergeron: trumpet and flugelhorn (lead 1-4, 6);
Patrick Hession: trumpet and flugelhorn (lead 5, 7-9);
Serafin Aguilar: trumpet and flugelhorn;
Ken Edwards: trumpet and flugelhorn;
Mike Dubaniewicz: alto saxophone;
Chip McNeill: tenor and soprano saxophones;
Denis DiBlasio: baritone saxophone;
Steve Weist: trombone;
Jeff Lashway: piano;
Brian Mulholland: bass;
Stockton Helbing: drums and cymbals;
Christian Jacob: piano.
-


[torrentc.info]_t_5500810.torrent
Торрент: Зарегистрирован ·  [ 2018-01-04 22:54 ] ·  8126f52465042875ad439c7dd0b1f06076f20daf

17 KB

Статус: проверено
Скачан: 0 раз
Размер: 392 MB
Оценка: 
(Голосов: 0)
Сказали спасибо: 0  Спасибо
Похожие темы
[Профиль]    [ЛС]
Показать сообщения:    
Ответить на тему

Текущее время: Сегодня 22:26

Часовой пояс: GMT + 7



Вы не можете начинать темы
Вы не можете отвечать на сообщения
Вы не можете редактировать свои сообщения
Вы не можете удалять свои сообщения
Вы не можете голосовать в опросах
Вы не можете прикреплять файлы к сообщениям
Вы можете скачивать файлы