(Big Band, Swing) [CD] The Frank Wess-Harry Edison Orchestra - Dear Mr. Basie - 1989 (Concrod Jazz), FLAC (tracks+.cue), lossless

Ответить на тему
Статистика раздачи [Обновить пиров]
Размер:  404 MB   |    Зарегистрирован:  11 месяцев 11 дней   |    Скачан:  0 раз

Полного источника не было: Никогда

 
   
 
 
 
Автор Сообщение

torrentc.info

Создавать темы 04-Янв-2018 22:55

[Цитировать]

- --The Frank Wess-Harry Edison Orchestra - Dear Mr. Basie - 1989 (Concrod Jazz)- Жанр: Big Band, Swing
Носитель: CD (live)
Страна-производитель диска (релиза): US
Год издания оригинала: 1989
Издатель (лейбл): Concrod Jazz
Номер по каталогу: CCD-4420
Страна исполнителя (группы) : US
Дата / место записи: live at Kan-i-Hiken Hall Tokyo, Japan November 1989, Fujitsu-Concord Jazz Festival
Аудио кодек: FLAC (*.flac)
Тип рипа: (tracks + .cue)
Битрейт аудио: lossless
Наличие сканов в содержимом раздачи: full scans, png, 300 dpi
Продолжительность: 1:06:25
Источник (релизер): Моя коллекция, мой рип
Трэклист:
1. Jumpin' At The Woodside (Count Basie) 3:22
2. The Very Thought Of You (Ray Noble) 4:40
3. Blue On Blue (Frank Wess) 4:00
4. All Riled Up (Frank Wess) 4:13
5. This Is All I Ask (Gordon Jenkins) 5:11
6. I Wish I Knew (Harry Warren, Mack Gordon) 8:32
7. Whirly Bird (Neal Hefti) 3:42
8. Li'l Darlin' (Neal Hefti) 5:11
9. Dejection Blues (Ray Brown) 6:58
10. Battle Royal (Duke Ellington) 9:59
11. One O'clock Jump (Count Basie) 4:05

Лог создания рипа

Exact Audio Copy V1.3 from 2. September 2016
EAC extraction logfile from 5. September 2017, 19:14
The Frank Wess-Harry Edison Orchestra / Dear Mr. Basie
Used drive : HL-DT-STDVDRAM GSA-T50N Adapter: 1 ID: 0
Read mode : SecureUtilize accurate stream : YesDefeat audio cache : YesMake use of C2 pointers : No
Read offset correction : 667Overread into Lead-In and Lead-Out : NoFill up missing offset samples with silence : YesDelete leading and trailing silent blocks : NoNull samples used in CRC calculations : YesUsed interface : Native Win32 interface for Win NT & 2000Gap handling : Appended to previous track
Used output format : User Defined EncoderSelected bitrate : 1024 kBit/sQuality : HighAdd ID3 tag : NoCommand line compressor : C:\Program Files\Exact Audio Copy\Flac\flac.exeAdditional command line options : -V -8 -T "Genre=%genre%" -T "Artist=%artist%" -T "Title=%title%" -T "Album=%albumtitle%" -T "Date=%year%" -T "Tracknumber=%tracknr%" %source% -o %dest%
TOC of the extracted CD
Track | Start | Length | Start sector | End sector --------------------------------------------------------- 1 | 0:00.00 | 3:53.55 | 0 | 17529 2 | 3:53.55 | 5:04.72 | 17530 | 40401 3 | 8:58.52 | 4:26.65 | 40402 | 60416 4 | 13:25.42 | 4:46.60 | 60417 | 81926 5 | 18:12.27 | 6:11.35 | 81927 | 109786 6 | 24:23.62 | 9:30.48 | 109787 | 152584 7 | 33:54.35 | 4:12.27 | 152585 | 171511 8 | 38:06.62 | 5:41.68 | 171512 | 197154 9 | 43:48.55 | 7:28.42 | 197155 | 230796 10 | 51:17.22 | 10:25.25 | 230797 | 277696 11 | 61:42.47 | 4:42.28 | 277697 | 298874
Track 1
Filename C:\music\MG rips\The Frank Wess-Harry Edison Orchestra - Dear Mr. Basie - 1989 (Concrod Jazz CCD-4420) [FLAC]\01 - Jumpin' At The Woodside.wav
Pre-gap length 0:00:02.00
Peak level 97.2 % Extraction speed 2.1 X Track quality 99.9 % Test CRC 414243B4 Copy CRC 414243B4 Accurately ripped (confidence 6) [7F47E65E] (AR v2) Copy OK
Track 2
Filename C:\music\MG rips\The Frank Wess-Harry Edison Orchestra - Dear Mr. Basie - 1989 (Concrod Jazz CCD-4420) [FLAC]\02 - The Very Thought Of You.wav
Peak level 96.8 % Extraction speed 2.7 X Track quality 100.0 % Test CRC 348E99EE Copy CRC 348E99EE Accurately ripped (confidence 6) [66C44937] (AR v2) Copy OK
Track 3
Filename C:\music\MG rips\The Frank Wess-Harry Edison Orchestra - Dear Mr. Basie - 1989 (Concrod Jazz CCD-4420) [FLAC]\03 - Blue On Blue.wav
Pre-gap length 0:00:02.52
Peak level 97.0 % Extraction speed 2.9 X Track quality 100.0 % Test CRC C6EFEF0E Copy CRC C6EFEF0E Accurately ripped (confidence 6) [60797B05] (AR v2) Copy OK
Track 4
Filename C:\music\MG rips\The Frank Wess-Harry Edison Orchestra - Dear Mr. Basie - 1989 (Concrod Jazz CCD-4420) [FLAC]\04 - All Riled Up.wav
Pre-gap length 0:00:03.29
Peak level 96.9 % Extraction speed 2.9 X Track quality 99.9 % Test CRC A4831AED Copy CRC A4831AED Accurately ripped (confidence 6) [49D7A860] (AR v2) Copy OK
Track 5
Filename C:\music\MG rips\The Frank Wess-Harry Edison Orchestra - Dear Mr. Basie - 1989 (Concrod Jazz CCD-4420) [FLAC]\05 - This Is All I Ask.wav
Peak level 93.0 % Extraction speed 3.6 X Track quality 100.0 % Test CRC 7138801B Copy CRC 7138801B Accurately ripped (confidence 6) [265175ED] (AR v2) Copy OK
Track 6
Filename C:\music\MG rips\The Frank Wess-Harry Edison Orchestra - Dear Mr. Basie - 1989 (Concrod Jazz CCD-4420) [FLAC]\06 - I Wish I Knew.wav
Peak level 95.7 % Extraction speed 4.1 X Track quality 100.0 % Test CRC B6B48E30 Copy CRC B6B48E30 Accurately ripped (confidence 6) [347DD683] (AR v2) Copy OK
Track 7
Filename C:\music\MG rips\The Frank Wess-Harry Edison Orchestra - Dear Mr. Basie - 1989 (Concrod Jazz CCD-4420) [FLAC]\07 - Whirly Bird.wav
Peak level 98.2 % Extraction speed 4.1 X Track quality 100.0 % Test CRC 1B053009 Copy CRC 1B053009 Accurately ripped (confidence 6) [EB015B07] (AR v2) Copy OK
Track 8
Filename C:\music\MG rips\The Frank Wess-Harry Edison Orchestra - Dear Mr. Basie - 1989 (Concrod Jazz CCD-4420) [FLAC]\08 - Li'l Darlin'.wav
Peak level 65.4 % Extraction speed 4.3 X Track quality 100.0 % Test CRC D01AB0FD Copy CRC D01AB0FD Accurately ripped (confidence 6) [E37C0BAF] (AR v2) Copy OK
Track 9
Filename C:\music\MG rips\The Frank Wess-Harry Edison Orchestra - Dear Mr. Basie - 1989 (Concrod Jazz CCD-4420) [FLAC]\09 - Dejection Blues.wav
Peak level 95.8 % Extraction speed 4.7 X Track quality 100.0 % Test CRC C0799B2E Copy CRC C0799B2E Accurately ripped (confidence 6) [BD00985B] (AR v2) Copy OK
Track 10
Filename C:\music\MG rips\The Frank Wess-Harry Edison Orchestra - Dear Mr. Basie - 1989 (Concrod Jazz CCD-4420) [FLAC]\10 - Battle Royal.wav
Peak level 96.5 % Extraction speed 5.1 X Track quality 100.0 % Test CRC 57D96B0D Copy CRC 57D96B0D Accurately ripped (confidence 6) [06720BC4] (AR v2) Copy OK
Track 11
Filename C:\music\MG rips\The Frank Wess-Harry Edison Orchestra - Dear Mr. Basie - 1989 (Concrod Jazz CCD-4420) [FLAC]\11 - One O'Clock Jump.wav
Peak level 97.3 % Extraction speed 5.0 X Track quality 100.0 % Test CRC FFF6DB08 Copy CRC FFF6DB08 Accurately ripped (confidence 6) [7BF1C2D0] (AR v2) Copy OK
All tracks accurately ripped
No errors occurred
End of status report
==== Log checksum C5F0183D9205D1FA2E7EB3BC728AD9FDDAE8ED291A3E39A6E9A986C2A38A537A ====

Содержание индексной карты (.CUE):

REM GENRE JazzREM DATE 1989REM DISCID 8D0F910BREM COMMENT "ExactAudioCopy v1.3"PERFORMER "The Frank Wess-Harry Edison Orchestra"TITLE "Dear Mr. Basie"REM COMPOSER ""FILE "01 - Jumpin' At The Woodside.wav" WAVE TRACK 01 AUDIO TITLE "Jumpin' At The Woodside" PERFORMER "The Frank Wess-Harry Edison Orchestra" REM COMPOSER "" INDEX 01 00:00:00FILE "02 - The Very Thought Of You.wav" WAVE TRACK 02 AUDIO TITLE "The Very Thought Of You" PERFORMER "The Frank Wess-Harry Edison Orchestra" REM COMPOSER "" INDEX 01 00:00:00 TRACK 03 AUDIO TITLE "Blue On Blue" PERFORMER "The Frank Wess-Harry Edison Orchestra" REM COMPOSER "" INDEX 00 05:02:20FILE "03 - Blue On Blue.wav" WAVE INDEX 01 00:00:00 TRACK 04 AUDIO TITLE "All Riled Up" PERFORMER "The Frank Wess-Harry Edison Orchestra" REM COMPOSER "" INDEX 00 04:23:36FILE "04 - All Riled Up.wav" WAVE INDEX 01 00:00:00FILE "05 - This Is All I Ask.wav" WAVE TRACK 05 AUDIO TITLE "This Is All I Ask" PERFORMER "The Frank Wess-Harry Edison Orchestra" REM COMPOSER "" INDEX 01 00:00:00FILE "06 - I Wish I Knew.wav" WAVE TRACK 06 AUDIO TITLE "I Wish I Knew" PERFORMER "The Frank Wess-Harry Edison Orchestra" REM COMPOSER "" INDEX 01 00:00:00FILE "07 - Whirly Bird.wav" WAVE TRACK 07 AUDIO TITLE "Whirly Bird" PERFORMER "The Frank Wess-Harry Edison Orchestra" REM COMPOSER "" INDEX 01 00:00:00FILE "08 - Li'l Darlin'.wav" WAVE TRACK 08 AUDIO TITLE "Li'l Darlin'" PERFORMER "The Frank Wess-Harry Edison Orchestra" REM COMPOSER "" INDEX 01 00:00:00FILE "09 - Dejection Blues.wav" WAVE TRACK 09 AUDIO TITLE "Dejection Blues" PERFORMER "The Frank Wess-Harry Edison Orchestra" REM COMPOSER "" INDEX 01 00:00:00FILE "10 - Battle Royal.wav" WAVE TRACK 10 AUDIO TITLE "Battle Royal" PERFORMER "The Frank Wess-Harry Edison Orchestra" REM COMPOSER "" INDEX 01 00:00:00FILE "11 - One O'Clock Jump.wav" WAVE TRACK 11 AUDIO TITLE "One O'Clock Jump" PERFORMER "The Frank Wess-Harry Edison Orchestra" REM COMPOSER "" INDEX 01 00:00:00

Лог проверки качества

Лог CUETools

[CUETools log; Date: 12/21/2017 5:57:09 AM; Version: 2.1.5][CTDB TOCID: DiaCpNELECioOTtFljVGs30GdhA-] found.Track | CTDB Status 1 | (2/2) Accurately ripped 2 | (2/2) Accurately ripped 3 | (2/2) Accurately ripped 4 | (2/2) Accurately ripped 5 | (2/2) Accurately ripped 6 | (2/2) Accurately ripped 7 | (2/2) Accurately ripped 8 | (2/2) Accurately ripped 9 | (2/2) Accurately ripped 10 | (2/2) Accurately ripped 11 | (2/2) Accurately ripped[AccurateRip ID: 0019011c-00df3c7f-8d0f910b] found.Track [ CRC | V2 ] Status 01 [7dba63dc|7f47e65e] (04+06/10) Accurately ripped 02 [67634a92|66c44937] (04+06/10) Accurately ripped 03 [1241066c|60797b05] (04+06/10) Accurately ripped 04 [fa945282|49d7a860] (04+06/10) Accurately ripped 05 [0c496dcd|265175ed] (04+06/10) Accurately ripped 06 [8432734d|347dd683] (04+06/10) Accurately ripped 07 [d3d67c6c|eb015b07] (04+06/10) Accurately ripped 08 [62a0fb76|e37c0baf] (04+06/10) Accurately ripped 09 [dc344ad1|bd00985b] (04+06/10) Accurately ripped 10 [8e7eb0ac|06720bc4] (04+06/10) Accurately ripped 11 [4da4c193|7bf1c2d0] (03+06/09) Accurately ripped
Track Peak [ CRC32 ] [W/O NULL] [ LOG ] -- 98.2 [9E79E0F5] [D03E80AA] 01 97.2 [414243B4] [5FFBEE18] CRC32 02 96.8 [348E99EE] [DBD3081B] CRC32 03 97.0 [C6EFEF0E] [0612C2A5] CRC32 04 96.9 [A4831AED] [6335D8A6] CRC32 05 93.0 [7138801B] [C8ED49D5] CRC32 06 95.7 [B6B48E30] [F4D104F8] CRC32 07 98.2 [1B053009] [18BB403E] CRC32 08 65.4 [D01AB0FD] [FD4E06D0] CRC32 09 95.8 [C0799B2E] [D0988C94] CRC32 10 96.5 [57D96B0D] [3875AABC] CRC32 11 97.3 [FFF6DB08] [5AE7D1C6] CRC32

Замер динамического диапазона

foobar2000 1.3.10 / Замер динамического диапазона (DR) 1.1.1Дата отчёта: 2017-09-11 11:42:19
--------------------------------------------------------------------------------Анализ: The Frank Wess-Harry Edison Orchestra / Dear Mr. Basie--------------------------------------------------------------------------------
DR Пики RMS Продолжительность трека--------------------------------------------------------------------------------DR12 -0.24 дБ -15.38 дБ 3:54 01-Jumpin' At The WoodsideDR13 -0.28 дБ -17.97 дБ 5:05 02-The Very Thought Of YouDR13 -0.26 дБ -16.08 дБ 4:27 03-Blue On BlueDR13 -0.27 дБ -16.08 дБ 4:47 04-All Riled UpDR16 -0.63 дБ -20.70 дБ 6:11 05-This Is All I AskDR16 -0.38 дБ -21.38 дБ 9:31 06-I Wish I KnewDR12 -0.16 дБ -16.12 дБ 4:12 07-Whirly BirdDR15 -3.68 дБ -22.85 дБ 5:42 08-Li'l Darlin'DR13 -0.37 дБ -17.85 дБ 7:29 09-Dejection BluesDR13 -0.30 дБ -16.51 дБ 10:25 10-Battle RoyalDR13 -0.23 дБ -17.79 дБ 4:42 11-One O'Clock Jump--------------------------------------------------------------------------------
Количество треков: 11Реальные значения DR: DR14
Частота: 44100 ГцКаналов: 2Разрядность: 16Битрейт: 835 кбит/сКодек: FLAC================================================================================
-

Back

Диск

Матрица

Состав

Alto Saxophone – Curtis Peagler, Marshall Royal
Baritone Saxophone – Bill Ramsey
Bass – Eddie Jones
Drums – Gregg Field
Guitar – Ted Dunbar
Piano – Ronnell Bright
Producer – Takao Ishizuka
Tenor Saxophone – Billy Mitchell
Tenor Saxophone, Flute – Frank Wess
Trombone – Al Grey, Benny Powell, Grover Mitchell, Michael Grey
Trumpet – Al Aarons, Harry 'Sweets' Edison, Joe Newman, Ray Brown, Snooky Young
-


[torrentc.info]_t_5502504.torrent
Торрент: Зарегистрирован ·  [ 2018-01-04 22:54 ] ·  6b003e9fd0caf8d9bed21b51f13886e0e64cf6be

17 KB

Статус: проверено
Скачан: 0 раз
Размер: 404 MB
Оценка: 
(Голосов: 0)
Сказали спасибо: 0  Спасибо
Похожие темы
[Профиль]    [ЛС]
Показать сообщения:    
Ответить на тему

Текущее время: Сегодня 20:30

Часовой пояс: GMT + 7



Вы не можете начинать темы
Вы не можете отвечать на сообщения
Вы не можете редактировать свои сообщения
Вы не можете удалять свои сообщения
Вы не можете голосовать в опросах
Вы не можете прикреплять файлы к сообщениям
Вы можете скачивать файлы