Скуби и Скреппи / Scooby-Doo and Scrappy-Doo / Сезон: 1-4 / Серии: 66 из 115 (Рэй Паттерсон / Rej Patterson) [1979, детектив, комедия, DVDRemux] Dub + 3xMVO + Original + Sub (Rus, Eng)

Ответить на тему
Статистика раздачи [Обновить пиров]
Размер:  28.53 GB   |    Зарегистрирован:  7 месяцев 17 дней   |    Скачан:  0 раз

Полного источника не было: Никогда

 
   
 
 
 
Автор Сообщение

torrentc.info

Создавать темы 02-Янв-2018 19:31

[Цитировать]

Скуби и Скреппи / Scooby-Doo and Scrappy-Doo
Страна: США
Жанр: Ужасы, Детектив, Комедия
Продолжительность серии: ~22 мин (1 сезон), ~8 мин (2-4 сезоны)
Год выхода: 1979
Перевод:
  • Профессиональный (дублированный) - фирма СВ-Дубль по заказу СТС, 2001 год
  • Профессиональный (многоголосый закадровый) - Бибигон по заказу ВГТРК, 2007 год
  • Профессиональный (многоголосый закадровый) - Премьер Видео Фильм, 2004 год
  • Профессиональный (многоголосый закадровый) - CP-Дистрибуция, 2013 год
Субтитры: русские |Rus|, английские-Режиссёр: Рэй Паттерсон / Rej Patterson
Описание: Главные герои сериала пёс Скуби и щенок Скрэппи через 10 лет вместе появляются на экранах. До этого Скуби был уже популярным в сериале «Скуби-Ду, где же ты?». Героев в основном четверо: закадычные друзья Скуби и Шегги, племянник Скуби Скрэппи и какое-нибудь чудище. Смысл мультсериала заключается в том, что когда приходит чудище, Скуби и Шегги пытаются спасаться бегством, просто этого им не даёт Скрэппи. Его тянет подраться, но он такой маленький и беспомощный, что Скуби и Шегги приходится спасать не только самих себя, но и непутёвого щенка.

Список серий и наличие переводов:

Сезон 1:01 The Scarab Lives! СВ-Дубль .02 The Night Ghoul of Wonderworld СВ-Дубль .03 Strange Encounters of a Scooby Kind СВ-Дубль .04 The Neon Phantom of the Roller Disco! СВ-Дубль .05 Shiver and Shake, That Demon's a Snake СВ-Дубль Rus.06 The Scary Sky Skeleton СВ-Дубль Rus.07 The Demon of the Dugout СВ-Дубль .08 The Hairy Scare of the Devil Bear СВ-Дубль .09 Twenty Thousand Screams under the Sea СВ-Дубль .10 I Left My Neck in San Francisco СВ-Дубль .11 When You Wish Upon a Star Creature СВ-Дубль .12 The Ghoul, the Bat and the Ugly СВ-Дубль .13 Rocky Mountain Yiiiii! СВ-Дубль .14 The Sorcerer's a Menace СВ-Дубль .15 Lock The Door, It's a Minotaur! СВ-Дубль Rus.16 The Ransom of Scooby Chief СВ-Дубль .
Сезон 2:01 A Close Encounter with a Strange Kind СВ-Дубль Бибигон .02 A Fit Night Out for Bats СВ-Дубль Бибигон Rus.03 The Chinese Food Factory СВ-Дубль Бибигон .04 Scooby’s Desert Dilemma СВ-Дубль Бибигон .05 The Old Cat and Mouse Game СВ-Дубль Бибигон .06 Stow-Aways СВ-Дубль Бибигон .07 Mummy’s the Word СВ-Дубль Бибигон .08 Hang in There, Scooby СВ-Дубль Бибигон .09 Stuntman Scooby СВ-Дубль Бибигон .10 Scooby’s Three Ding-A-Ling Circus СВ-Дубль Бибигон .11 Scooby’s Fantastic Island СВ-Дубль Бибигон .12 Long John Scrappy СВ-Дубль Бибигон .13 Scooby’s Bull Fright СВ-Дубль Бибигон .14 Scooby Ghosts West СВ-Дубль Бибигон .15 A Bungle in the Jungle СВ-Дубль Бибигон .16 Scooby’s Fun Zone СВ-Дубль Бибигон Rus.17 Swamp Witch СВ-Дубль Бибигон .18 Sir Scooby and the Black Knight СВ-Дубль Бибигон .19 Waxworld СВ-Дубль Бибигон .20 Scooby in Wonderland СВ-Дубль Бибигон .21 Scrappy’s Birthday СВ-Дубль Бибигон .22 South Seas Scare СВ-Дубль .23 Scooby's Swiss Miss СВ-Дубль .24 Alaskan King Coward СВ-Дубль Премьер .25 Et Tu, Scoob СВ-Дубль .26 Soggy Bog Scooby СВ-Дубль .27 Scooby Gumbo СВ-Дубль .28 Way Out Scooby СВ-Дубль Rus.2930 Moonlight Madness СВ-Дубль Rus.313233343536373839 Сезон 3:01 Scooby-Nocchio СВ-Дубль Бибигон .02 Lighthouse Keeper Scooby СВ-Дубль Бибигон .03 Scooby’s Roots СВ-Дубль Бибигон .04 Scooby’s Escape from Atlantis СВ-Дубль .05 Excalibur Scooby СВ-Дубль .06070809 Scooby’s Luck of the Irish СВ-Дубль .10111213 Scooby-Doo 2000 СВ-Дубль Бибигон .14 Punk Rock Scooby СВ-Дубль Бибигон .151617 Hothouse Scooby СВ-Дубль Бибигон .181920 Tenderbigfoot СВ-Дубль Бибигон .21 Сезон 4:01 Maltese Mackerel СВ-Дубль Rus.0203 Yabba’s Rustle Hustle СВ-Дубль .0405060708 Basketball Bumblers СВ-Дубль .0910111213 Who's Scooby-Doo СВ-Дубль Rus.14151617 Muscle Trouble СВ-Дубль .1819 Comic Book Caper СВ-Дубль Rus.202122232425 Disappearing Car Caper СВ-Дубль Rus.2627282930 Alien Schmalien СВ-Дубль .3132 Picnic Poopers СВ-Дубль .333435 Where's the Werewolf СВ-Дубль Rus.363738 Snow Job Too Small СВ-Дубль CP-Дистр. Rus.39
[url=tracker.php?nm=scooby%20scrappy%201979]Предыдущие и альтернативные раздачи[/url]-

Дополнительная информация:

  • Раздача представляет собой все выпущенные на данный момент на DVD серии данного мультсериала. Все серии представлены в наилучшем качестве видео (при наличии нескольких источников, например NTSC и PAL, выбирался источник с лучшей картинкой) и с максимально возможным набором аудиодорожек и субтитров.
  • Видео: первый сезон полностью с "Scooby-Doo And Scrappy-Doo The Complete Season 1"; бОльшая часть второго сезона с "The Richie Rich/Scooby-Doo Show: Volume One"; большинство оставшихся серий с различных выпусков "Scooby-Doo! 13 Spooky Tales"; а все остальное с кучи разных сборников, что-то даже шло в качестве бонусных эпизодов к полнометражкам и т.д. В названии видеодорожки каждой серии указано название DVD, откуда они были взяты.
  • Аудио №1 - DVB с СТС. За Источник: Torrentcи спасибо [url=profile.php?mode=viewprofile&u=10830784]afedrenkv[/url]. Исключение составляют те серии, что официально издавались у нас на DVD. Для таких серий - официальная дорога с DVD.
  • За Аудио №2 спасибо [url=profile.php?mode=viewprofile&u=893523]Shellters-bob[/url], Коле Чешскому и неизвестному автору почившей раздачи с ТВ-рипами с Бибигона.
  • Аудио №3 - с кассеты Премьера "Зимний Чудо-Пес". За оцифровку спасибо AlexMosF1.
  • Аудио №4 и все русские субтитры с различных российский DVD-сборников, издаваемых CP-Дистрибуция. Большинство таких DVD из личной коллекции.
  • В комплекте с каждой серией - обложка с названием серии.
  • За синхронизацию всего и вся спасибо мне - [url=profile.php?mode=viewprofile&u=21592437]yaroslav230596[/url].
-Качество: DVDRemux | NTSC 1x01-16, 2x01,03-15,17-28,30, 3x01-05,09,13-14,17,20, 4x01,03,08,13,17,25,30,32 | PAL 2x02,16, 4x19,35,38
Формат файла: MKV
Видео NTSC: MPEG-2 | 720x480 | 23.976 fps | ~5500 kbps
Видео PAL: MPEG-2 | 720x576 | 25.000 fps | ~5000 kbps
Аудио 1: RUS | AC-3 | 48.0 KHz | 2 ch | 256 kbps | Dub "СВ-Дубль"
Аудио 2: RUS | AC-3 | 48.0 KHz | 2 ch | 192 kbps | MVO "Бибигон" | 2x01-21, 3x1-3,13-14,17,20
Аудио 3: RUS | AC-3 | 48.0 KHz | 2 ch | 192 kbps | MVO "Премьер" | 2x24
Аудио 4: RUS | AC-3 | 48.0 KHz | 2 ch | 192 kbps | MVO "CP-Дистрибуция" | 3x38
Аудио 5: ENG | AC-3 | 48.0 KHz | 1 ch | 192 kbps
Субтитры 1: RUS | VobSub | 1x05-06, 2x02,16,28,30, 4x03,13,19,25,35,38
Субтитры 2: ENG | VobSub
Семпл: NTSC | PAL

Подробные технические данныеNTSC

Format : MatroskaFormat version : Version 4 / Version 2File size : 334 MiBDuration : 7 min 20 sOverall bit rate mode : VariableOverall bit rate : 6 350 kb/sMovie name : 2x05 - The Old Cat and Mouse GameEncoded date : UTC 2017-12-27 16:55:15Writing application : mkvmerge v18.0.0 ('Apricity') 64-bitWriting library : libebml v1.3.5 + libmatroska v1.4.8Cover : YesAttachments : cover.png
VideoID : 1Format : MPEG VideoFormat version : Version 2Format profile : Main@MainFormat settings, BVOP : YesFormat settings, Matrix : CustomFormat settings, GOP : M=3, N=12Format settings, picture st : FrameCodec ID : V_MPEG2Codec ID/Info : MPEG 1 or 2 VideoDuration : 7 min 20 sBit rate mode : VariableBit rate : 5 691 kb/sMaximum bit rate : 7 500 kb/sWidth : 720 pixelsHeight : 480 pixelsDisplay aspect ratio : 4:3Frame rate mode : VariableFrame rate : 24.591 FPSOriginal frame rate : 29.970 (30000/1001) FPSColor space : YUVChroma subsampling : 4:2:0Bit depth : 8 bitsScan type : InterlacedScan order : Top Field FirstCompression mode : LossyBits/(Pixel*Frame) : 0.670Time code of first frame : 00:59:59;00Time code source : Group of pictures headerGOP, Open/Closed : OpenGOP, Open/Closed of first f : ClosedStream size : 299 MiB (90%)Title : 2008 The Richie Rich/Scooby-Doo Show: Volume OneLanguage : EnglishDefault : YesForced : No
Audio #1ID : 2Format : AC-3Format/Info : Audio Coding 3Format settings, Endianness : BigCodec ID : A_AC3Duration : 7 min 20 sBit rate mode : ConstantBit rate : 256 kb/sChannel(s) : 2 channelsChannel positions : Front: L RSampling rate : 48.0 kHzFrame rate : 31.250 FPS (1536 spf)Bit depth : 16 bitsCompression mode : LossyStream size : 13.4 MiB (4%)Title : DUB "СВ-Дубль" 2001Language : RussianService kind : Complete MainDefault : YesForced : No
Audio #2ID : 3Format : AC-3Format/Info : Audio Coding 3Format settings, Endianness : BigCodec ID : A_AC3Duration : 7 min 20 sBit rate mode : ConstantBit rate : 192 kb/sChannel(s) : 2 channelsChannel positions : Front: L RSampling rate : 48.0 kHzFrame rate : 31.250 FPS (1536 spf)Bit depth : 16 bitsCompression mode : LossyStream size : 10.1 MiB (3%)Title : MVO по заказу ВГТРК 2007 (Бибигон)Language : RussianService kind : Complete MainDefault : NoForced : No
Audio #3ID : 4Format : AC-3Format/Info : Audio Coding 3Format settings, Endianness : BigCodec ID : A_AC3Duration : 7 min 20 sBit rate mode : ConstantBit rate : 192 kb/sChannel(s) : 1 channelChannel positions : Front: CSampling rate : 48.0 kHzFrame rate : 31.250 FPS (1536 spf)Bit depth : 16 bitsCompression mode : LossyDelay relative to video : 23 msStream size : 10.1 MiB (3%)Title : MonoLanguage : EnglishService kind : Complete MainDefault : NoForced : No
TextID : 5Format : VobSubMuxing mode : zlibCodec ID : S_VOBSUBCodec ID/Info : Picture based subtitle format used on DVDsDuration : 6 min 39 sBit rate : 3 926 b/sCount of elements : 143Stream size : 191 KiB (0%)Language : EnglishDefault : NoForced : No

PAL

Format : MatroskaFormat version : Version 4 / Version 2File size : 324 MiBDuration : 8 min 6 sOverall bit rate mode : VariableOverall bit rate : 5 586 kb/sMovie name : 2x02 - A Fit Night Out for BatsEncoded date : UTC 2017-02-03 18:46:09Writing application : mkvmerge v9.8.0 ('Kuglblids') 64bitWriting library : libebml v1.3.4 + libmatroska v1.4.5Cover : YesAttachments : cover.png
VideoID : 1Format : MPEG VideoFormat version : Version 2Format profile : Main@MainFormat settings, BVOP : YesFormat settings, Matrix : CustomFormat settings, GOP : VariableFormat settings, picture st : FrameCodec ID : V_MPEG2Codec ID/Info : MPEG 1 or 2 VideoDuration : 8 min 6 sBit rate mode : VariableBit rate : 4 988 kb/sMaximum bit rate : 7 500 kb/sWidth : 720 pixelsHeight : 576 pixelsDisplay aspect ratio : 4:3Frame rate mode : ConstantFrame rate : 25.000 FPSStandard : PALColor space : YUVChroma subsampling : 4:2:0Bit depth : 8 bitsScan type : InterlacedScan order : Top Field FirstCompression mode : LossyBits/(Pixel*Frame) : 0.481Time code of first frame : 00:59:58:00Time code source : Group of pictures headerGOP, Open/Closed : ClosedStream size : 289 MiB (89%)Title : 2012 Scooby-Doo! and VampiresLanguage : EnglishDefault : YesForced : No
Audio #1ID : 2Format : AC-3Format/Info : Audio Coding 3Format settings, Endianness : BigCodec ID : A_AC3Duration : 8 min 6 sBit rate mode : ConstantBit rate : 192 kb/sChannel(s) : 2 channelsChannel positions : Front: L RSampling rate : 48.0 kHzFrame rate : 31.250 FPS (1536 spf)Bit depth : 16 bitsCompression mode : LossyStream size : 11.1 MiB (3%)Title : DUB "СВ-Дубль" 2001Language : RussianService kind : Complete MainDefault : YesForced : No
Audio #2ID : 3Format : AC-3Format/Info : Audio Coding 3Format settings, Endianness : BigCodec ID : A_AC3Duration : 8 min 6 sBit rate mode : ConstantBit rate : 192 kb/sChannel(s) : 2 channelsChannel positions : Front: L RSampling rate : 48.0 kHzFrame rate : 31.250 FPS (1536 spf)Bit depth : 16 bitsCompression mode : LossyStream size : 11.1 MiB (3%)Title : MVO по заказу ВГТРК 2007 (Бибигон)Language : RussianService kind : Complete MainDefault : NoForced : No
Audio #3ID : 4Format : AC-3Format/Info : Audio Coding 3Format settings, Endianness : BigCodec ID : A_AC3Duration : 8 min 6 sBit rate mode : ConstantBit rate : 192 kb/sChannel(s) : 1 channelChannel positions : Front: CSampling rate : 48.0 kHzFrame rate : 31.250 FPS (1536 spf)Bit depth : 16 bitsCompression mode : LossyStream size : 11.1 MiB (3%)Language : EnglishService kind : Complete MainDefault : NoForced : No
Text #1ID : 5Format : VobSubMuxing mode : zlibCodec ID : S_VOBSUBCodec ID/Info : Picture based subtitle format used on DVDsDuration : 7 min 52 sBit rate : 1 796 b/sCount of elements : 105Stream size : 104 KiB (0%)Language : RussianDefault : NoForced : No
Text #2ID : 6Format : VobSubMuxing mode : zlibCodec ID : S_VOBSUBCodec ID/Info : Picture based subtitle format used on DVDsDuration : 7 min 52 sBit rate : 2 397 b/sCount of elements : 130Stream size : 138 KiB (0%)Language : EnglishDefault : NoForced : No
Menu00:00:00.000 : en:Chapter 0100:01:03.800 : en:Chapter 0200:07:17.000 : en:Chapter 0300:08:05.600 : en:Chapter 04

СкриншотыNTSC



[torrentc.info]_t_5499088.torrent
Торрент: Зарегистрирован ·  [ 2018-01-02 19:30 ] ·  6e648c19b84badcab30ac09a0856130718d83fa2

152 KB

Статус: проверено
Скачан: 0 раз
Размер: 28.53 GB
Оценка: 
(Голосов: 0)
Сказали спасибо: 0  Спасибо
Похожие темы
[Профиль]    [ЛС]
Показать сообщения:    
Ответить на тему

Текущее время: Сегодня 00:14

Часовой пояс: GMT + 7



Вы не можете начинать темы
Вы не можете отвечать на сообщения
Вы не можете редактировать свои сообщения
Вы не можете удалять свои сообщения
Вы не можете голосовать в опросах
Вы не можете прикреплять файлы к сообщениям
Вы можете скачивать файлы