Старая зайчиха (Николай Коляда) [2017, комедия, DVB, AVC] Центр современной драматургии

Ответить на тему
Статистика раздачи [Обновить пиров]
Размер:  1.3 GB   |    Зарегистрирован:  5 месяцев 16 дней   |    Скачан:  0 раз

Полного источника не было: Никогда

 
   
 
 
 
Автор Сообщение

torrentc.info

Создавать темы 01-Янв-2018 21:42

[Цитировать]

Старая зайчиха
Название театра: Центр современной драматургии
Жанр: комедия
Год выхода: 2017
Продолжительность: 01:37:01
Режиссёр: Николай Коляда
В ролях: Тамара Зимина, Светлана Колесова, Сергей Федоров, Сергей Колесов, Валентина Сизоненко, Гюльнара Гимадутдинова, Наталья Цыганкова, Варвара Брылина, Татьяна Савина, Маргарита Токмакова, Ринат Ташимов, Никита Борисов, Александр Сысоев, Алексей Романов, Алексей Чувашов.
Описание: В основе сюжета история, которая может произойти только в России: артисты из Москвы приехали в какой-то далекий северный город, чтобы на концерте изобразить, намазавшись черным гримом, некую африканскую рок-группу, а после – получить большие деньги и уехать, оставив северных жителей в полной уверенности, что к ним приезжали знаменитые африканцы, а не пошлые московские артисты.
Главная героиня этой пьесы встречает в этом городе своего бывшего мужа… Казалось бы, очередная история на тему «вот и встретились два одиночества». Но за простым сюжетом скрываются вопросы жизни и смерти, смысла существования каждого человека. И тут не важно, кем ты работаешь: артистом или трактористом, продавцом или продюсером. Люди все похоже несчастны, одиноки и смешны одновременно.
Доп. информация: Запись потока *.ts со спутника Intelsat-15 / Horizons 2, 85.2° в.д., ремукс в *.mkv программой VideoReDo.
Семпл: http://multi-up.com/1181066
Качество видео: DVB
Формат файла: MKV
Видео: Advanced Video Codec, 720(1040)x576 (16:9), 25,000 кадров/сек, 1 722 Кбит/сек
Аудио: MPEG Audio, 48,0 КГц, 160 Кбит/сек, 2 канала

MediaInfo

General
Unique ID : 131902830847349669091860626464100369820 (0x633B8FA8B1FD17FD5EB7D08872ACC59C)
Complete name : D:\Torrent\СТАРАЯ ЗАЙЧИХА (Театр).mkv
Format : Matroska
Format version : Version 2
File size : 1.30 GiB
Duration : 1 h 37 min
Overall bit rate : 1 920 kb/s
Writing application : Lavf52.64.2
Writing library : Lavf52.64.2
Video
ID : 1
Format : AVC
Format/Info : Advanced Video Codec
Format profile : Main@L3
Format settings : CABAC / 3 Ref Frames
Format settings, CABAC : Yes
Format settings, RefFrames : 3 frames
Codec ID : V_MPEG4/ISO/AVC
Duration : 1 h 37 min
Bit rate : 1 722 kb/s
Width : 720 pixels
Height : 576 pixels
Display aspect ratio : 16:9
Original display aspect rat : 16:9
Frame rate mode : Constant
Frame rate : 25.000 FPS
Standard : Component
Color space : YUV
Chroma subsampling : 4:2:0
Bit depth : 8 bits
Scan type : Interlaced
Scan type, store method : Separated fields
Scan order : Top Field First
Bits/(Pixel*Frame) : 0.166
Stream size : 1.17 GiB (90%)
Default : Yes
Forced : No
Color range : Limited
Color primaries : BT.601 PAL
Transfer characteristics : BT.470 System B, BT.470 System G
Matrix coefficients : BT.470 System B, BT.470 System G
Audio
ID : 2
Format : MPEG Audio
Format version : Version 1
Format profile : Layer 2
Codec ID : A_MPEG/L2
Codec ID/Hint : MP2
Duration : 1 h 37 min
Bit rate mode : Constant
Bit rate : 160 kb/s
Channel(s) : 2 channels
Sampling rate : 48.0 kHz
Compression mode : Lossy
Stream size : 111 MiB (8%)
Language : Russian
Default : Yes
Forced : No

Скриншот с названием постановки



[torrentc.info]_t_5498321.torrent
Торрент: Зарегистрирован ·  [ 2018-01-01 21:42 ] ·  6974958e8b07010681a23942bd3b689f8799f33d

13 KB

Статус: проверено
Скачан: 0 раз
Размер: 1.3 GB
Оценка: 
(Голосов: 0)
Сказали спасибо: 0  Спасибо
Похожие темы
[Профиль]    [ЛС]
Показать сообщения:    
Ответить на тему

Текущее время: Сегодня 10:58

Часовой пояс: GMT + 7



Вы не можете начинать темы
Вы не можете отвечать на сообщения
Вы не можете редактировать свои сообщения
Вы не можете удалять свои сообщения
Вы не можете голосовать в опросах
Вы не можете прикреплять файлы к сообщениям
Вы можете скачивать файлы