Метод Вима Хофа / Wim Hof Method [2016, Закаливание, WEBRip, ENG] (Видеоурок)

Ответить на тему
Статистика раздачи [Обновить пиров]
Размер:  2.33 GB   |    Зарегистрирован:  11 месяцев 14 дней   |    Скачан:  2 раза

Полного источника не было: 6 дней

 
   
 
 
 
Автор Сообщение

torrentc.info

Создавать темы 01-Янв-2018 21:42

[Цитировать]

Метод Вима Хофа / Wim Hof Method
Страна: Голландия
Тематика: Закаливание
Тип раздаваемого материала: Видеоурок
Продолжительность: 8:12:17 min
Год выхода: 2016
Язык: Английский
Перевод: Отсутствует
Описание: 10-ти недельный курс закаливания и дыхательного тренинга по методу Вима Хофа.
Learn the Wim Hof Method through 10 comprehensive training videos, accompanied by a series of homework assignments to reinforce your practice.
The course starts off easy and becomes progressively more challenging, allowing your mind and body to adjust to the increasing stimuli, and letting you find your own limits.
This program was developed during Wim’s rough-and-tumble Iceman days. The course has a homely quality, and the techniques and exercises are explained and demonstrated in a sober, straightforward manner, giving you the tools to carve your own path.

Отчет MediaInfo

General
Complete name : H:\Wim Hof Method\01 - 10 Week Program\Week 2.mp4
Format : MPEG-4
Format profile : Base Media
Codec ID : isom (isom/iso2/avc1/mp41)
File size : 141 MiB
Duration : 32 min 19 s
Overall bit rate mode : Variable
Overall bit rate : 611 kb/s
Encoded date : UTC 1970-01-01 00:00:00
Tagged date : UTC 1970-01-01 00:00:00
Video
ID : 1
Format : AVC
Format/Info : Advanced Video Codec
Format profile : Baseline@L3
Format settings, CABAC : No
Format settings, RefFrames : 3 frames
Codec ID : avc1
Codec ID/Info : Advanced Video Coding
Duration : 32 min 19 s
Bit rate : 500 kb/s
Width : 854 pixels
Height : 480 pixels
Display aspect ratio : 16:9
Original display aspect rat : 16:9
Frame rate mode : Constant
Frame rate : 25.000 FPS
Color space : YUV
Chroma subsampling : 4:2:0
Bit depth : 8 bits
Scan type : Progressive
Bits/(Pixel*Frame) : 0.049
Stream size : 116 MiB (82%)
Writing library : x264 core 115 r1937 aa21558
Encoding settings : cabac=0 / ref=3 / deblock=1:0:0 / analyse=0x1:0x111 / me=hex / subme=7 / psy=1 / psy_rd=1.00:0.00 / mixed_ref=1 / me_range=16 / chroma_me=1 / trellis=1 / 8x8dct=0 / cqm=0 / deadzone=21,11 / fast_pskip=1 / chroma_qp_offset=-2 / threads=1 / sliced_threads=0 / nr=0 / decimate=1 / interlaced=0 / bluray_compat=0 / constrained_intra=0 / bframes=0 / weightp=0 / keyint=250 / keyint_min=25 / scenecut=40 / intra_refresh=0 / rc_lookahead=40 / rc=abr / mbtree=1 / bitrate=500 / ratetol=1.0 / qcomp=0.60 / qpmin=10 / qpmax=51 / qpstep=4 / ip_ratio=1.41 / aq=1:1.00
Language : English
Encoded date : UTC 1970-01-01 00:00:00
Tagged date : UTC 1970-01-01 00:00:00
Audio
ID : 2
Format : AAC
Format/Info : Advanced Audio Codec
Format profile : LC
Codec ID : 40
Duration : 32 min 19 s
Bit rate mode : Variable
Bit rate : 105 kb/s
Maximum bit rate : 128 kb/s
Channel(s) : 2 channels
Channel positions : Front: L R
Sampling rate : 44.1 kHz
Frame rate : 43.066 FPS (1024 SPF)
Compression mode : Lossy
Stream size : 24.3 MiB (17%)
Language : English
Encoded date : UTC 1970-01-01 00:00:00
Tagged date : UTC 1970-01-01 00:00:00
Качество: WEBRip
Формат файла: MP4
Видео кодек: H.264
Аудио кодек: AAC
Видео: H.264/AVC 853x480 25.000 FPS 500 kb/s
Аудио: AAC 44100Hz stereo 108kbps

Скриншоты



[torrentc.info]_t_5493087.torrent
Торрент: Зарегистрирован ·  [ 2018-01-01 21:42 ] ·  53a10737dffd6219358750f07adb873312cb0ff6

28 KB

Статус: проверено
Скачан: 2 раз
Размер: 2.33 GB
Оценка: 
(Голосов: 0)
Сказали спасибо: 1  Спасибо   (список)
Похожие темы
[Профиль]    [ЛС]

torrentc.info

Создавать темы 29-Ноя-2018 03:24 (спустя 10 месяцев 27 дней)

[Цитировать]

spasibo
[Профиль]    [ЛС]
Показать сообщения:    
Ответить на тему

Текущее время: Сегодня 12:55

Часовой пояс: GMT + 7



Вы не можете начинать темы
Вы не можете отвечать на сообщения
Вы не можете редактировать свои сообщения
Вы не можете удалять свои сообщения
Вы не можете голосовать в опросах
Вы не можете прикреплять файлы к сообщениям
Вы можете скачивать файлы