(IDM, Chamber Music, l. Ici d\'ailleurs) [CD] Chapelier fou - Kalia - 2016, FLAC (tracks+.cue), lossless

Ответить на тему
Статистика раздачи [Обновить пиров]
Размер:  108 MB   |    Зарегистрирован:  7 месяцев 22 дня   |    Скачан:  0 раз

Полного источника не было: Никогда

 
   
 
 
 
Автор Сообщение

torrentc.info

Создавать темы 29-Дек-2017 22:00

[Цитировать]

Chapelier fou
"Kalia"

Louis Warynski (birth name): 06.01.1984 ~ Metz ~ Lorraine ~ France
Аудио данные: FLAC (*.flac) ~ lossless ~ tracks+.cue
Жанры альбома: IDM ~ Chamber Music

Издатель CD: Ici d'ailleurs (France) ~ IDA 118
Время звучания альбома: 00-21-49
CD-источник : apollo.rip

Треклист
01. Bulbs (02:11)
02. Books (02:28)
03. Technology (02:28)
04. Tribal (02:34)
05. Drawers (02:31)
06. Thorns (02:27)
07. Lockers (02:32)
08. Stripes (02:17)
09. Birds (02:26)
Released: 27.05.2016
Link: bandcamp

e a c

Exact Audio Copy V1.0 beta 3 from 29. August 2011
EAC extraction logfile from 25. June 2016, 19:56
Chapelier Fou / Kalia
Used drive : TSSTcorpCDDVDW SE-218CB Adapter: 1 ID: 0
Read mode : SecureUtilize accurate stream : YesDefeat audio cache : YesMake use of C2 pointers : No
Read offset correction : 6Overread into Lead-In and Lead-Out : NoFill up missing offset samples with silence : YesDelete leading and trailing silent blocks : NoNull samples used in CRC calculations : YesUsed interface : Native Win32 interface for Win NT & 2000Gap handling : Appended to previous track
Used output format : User Defined EncoderSelected bitrate : 1024 kBit/sQuality : HighAdd ID3 tag : NoCommand line compressor : C:\Program Files (x86)\Exact Audio Copy\Flac\flac.exeAdditional command line options : -8 -V -T "ARTIST=%artist%" -T "TITLE=%title%" -T "ALBUM=%albumtitle%" -T "DATE=%year%" -T "TRACKNUMBER=%tracknr%" -T "GENRE=%genre%" -T "PERFORMER=%albuminterpret%" -T "COMPOSER=%composer%" %haslyrics%--tag-from-file=LYRICS="%lyricsfile%"%haslyrics% -T "ALBUMARTIST=%albumartist%" -T "DISCNUMBER=%cdnumber%" -T "TOTALDISCS=%totalcds%" -T "TOTALTRACKS=%numtracks%" -T "COMMENT=%comment%" %source% -o %dest%
TOC of the extracted CD
Track | Start | Length | Start sector | End sector --------------------------------------------------------- 1 | 0:00.00 | 2:10.11 | 0 | 9760 2 | 2:10.11 | 2:27.35 | 9761 | 20820 3 | 4:37.46 | 2:27.61 | 20821 | 31906 4 | 7:05.32 | 2:33.16 | 31907 | 43397 5 | 9:38.48 | 2:30.16 | 43398 | 54663 6 | 12:08.64 | 2:26.64 | 54664 | 65677 7 | 14:35.53 | 2:31.22 | 65678 | 77024 8 | 17:07.00 | 2:16.23 | 77025 | 87247 9 | 19:23.23 | 2:25.38 | 87248 | 98160
Track 1
Filename C:\EAC\Chapelier Fou - Kalia - 2016 - FLAC - CD\01. Bulbs.wav
Pre-gap length 0:00:02.00
Peak level 97.7 % Extraction speed 1.6 X Track quality 99.9 % Test CRC 4ABB3486 Copy CRC 4ABB3486 Track not present in AccurateRip database Copy OK
Track 2
Filename C:\EAC\Chapelier Fou - Kalia - 2016 - FLAC - CD\02. Books.wav
Peak level 97.7 % Extraction speed 2.4 X Track quality 100.0 % Test CRC E7CCE4D4 Copy CRC E7CCE4D4 Track not present in AccurateRip database Copy OK
Track 3
Filename C:\EAC\Chapelier Fou - Kalia - 2016 - FLAC - CD\03. Technology.wav
Peak level 97.7 % Extraction speed 2.6 X Track quality 100.0 % Test CRC 638F4950 Copy CRC 638F4950 Track not present in AccurateRip database Copy OK
Track 4
Filename C:\EAC\Chapelier Fou - Kalia - 2016 - FLAC - CD\04. Tribal.wav
Pre-gap length 0:00:02.26
Peak level 97.7 % Extraction speed 2.7 X Track quality 100.0 % Test CRC AFD3DD85 Copy CRC AFD3DD85 Track not present in AccurateRip database Copy OK
Track 5
Filename C:\EAC\Chapelier Fou - Kalia - 2016 - FLAC - CD\05. Drawers.wav
Pre-gap length 0:00:03.62
Peak level 97.7 % Extraction speed 2.9 X Track quality 100.0 % Test CRC 81E1CCCE Copy CRC 81E1CCCE Track not present in AccurateRip database Copy OK
Track 6
Filename C:\EAC\Chapelier Fou - Kalia - 2016 - FLAC - CD\06. Thorns.wav
Pre-gap length 0:00:02.34
Peak level 97.7 % Extraction speed 3.0 X Track quality 100.0 % Test CRC 0343EFD3 Copy CRC 0343EFD3 Track not present in AccurateRip database Copy OK
Track 7
Filename C:\EAC\Chapelier Fou - Kalia - 2016 - FLAC - CD\07. Lockers.wav
Pre-gap length 0:00:02.33
Peak level 97.7 % Extraction speed 3.1 X Track quality 100.0 % Test CRC 8B53255F Copy CRC 8B53255F Track not present in AccurateRip database Copy OK
Track 8
Filename C:\EAC\Chapelier Fou - Kalia - 2016 - FLAC - CD\08. Stripes.wav
Peak level 97.7 % Extraction speed 3.2 X Track quality 100.0 % Test CRC 8D4FE4A5 Copy CRC 8D4FE4A5 Track not present in AccurateRip database Copy OK
Track 9
Filename C:\EAC\Chapelier Fou - Kalia - 2016 - FLAC - CD\09. Birds.wav
Pre-gap length 0:00:01.16
Peak level 97.7 % Extraction speed 3.3 X Track quality 100.0 % Test CRC C9880C00 Copy CRC C9880C00 Track not present in AccurateRip database Copy OK
None of the tracks are present in the AccurateRip database
No errors occurred
End of status report
==== Log checksum 60323B081E31C4CCDC15D251B499A31DA0FBA3E0EE3E3BC6D3FAFC73D4BD25BF ====

c u e

REM GENRE "IDM"REM DATE 2016REM DISCID 6D051C09REM COMMENT "ExactAudioCopy v1.0b3"PERFORMER "Chapelier fou"TITLE "Kalia"FILE "01. Bulbs.wav" WAVE TRACK 01 AUDIO TITLE "Bulbs" PERFORMER "Chapelier fou" INDEX 01 00:00:00FILE "02. Books.wav" WAVE TRACK 02 AUDIO TITLE "Books" PERFORMER "Chapelier fou" INDEX 01 00:00:00FILE "03. Technology.wav" WAVE TRACK 03 AUDIO TITLE "Technology" PERFORMER "Chapelier fou" INDEX 01 00:00:00 TRACK 04 AUDIO TITLE "Tribal" PERFORMER "Chapelier fou" INDEX 00 02:25:41FILE "04. Tribal.wav" WAVE INDEX 01 00:00:00 TRACK 05 AUDIO TITLE "Drawers" PERFORMER "Chapelier fou" INDEX 00 02:29:44FILE "05. Drawers.wav" WAVE INDEX 01 00:00:00 TRACK 06 AUDIO TITLE "Thorns" PERFORMER "Chapelier fou" INDEX 00 02:27:65FILE "06. Thorns.wav" WAVE INDEX 01 00:00:00 TRACK 07 AUDIO TITLE "Lockers" PERFORMER "Chapelier fou" INDEX 00 02:24:39FILE "07. Lockers.wav" WAVE INDEX 01 00:00:00FILE "08. Stripes.wav" WAVE TRACK 08 AUDIO TITLE "Stripes" PERFORMER "Chapelier fou" INDEX 01 00:00:00 TRACK 09 AUDIO TITLE "Birds" PERFORMER "Chapelier fou" INDEX 00 02:15:11FILE "09. Birds.wav" WAVE INDEX 01 00:00:00


[torrentc.info]_t_5498137.torrent
Торрент: Зарегистрирован ·  [ 2017-12-29 21:54 ] ·  4a719dbd86f6a2133ab491327f29daf3a6086596

18 KB

Статус: проверено
Скачан: 0 раз
Размер: 108 MB
Оценка: 
(Голосов: 0)
Сказали спасибо: 0  Спасибо
Похожие темы
[Профиль]    [ЛС]
Показать сообщения:    
Ответить на тему

Текущее время: Сегодня 07:37

Часовой пояс: GMT + 7



Вы не можете начинать темы
Вы не можете отвечать на сообщения
Вы не можете редактировать свои сообщения
Вы не можете удалять свои сообщения
Вы не можете голосовать в опросах
Вы не можете прикреплять файлы к сообщениям
Вы можете скачивать файлы