(Mainstream Jazz, Cool) [CD] Clark Terry & Bob Brookmeyer Quintet - Gingerbread Men - 1966 (1991), FLAC (tracks+.cue), lossless

Ответить на тему
Статистика раздачи [Обновить пиров]
Размер:  233 MB   |    Зарегистрирован:  11 месяцев 15 дней   |    Скачан:  0 раз

Полного источника не было: Никогда

 
   
 
 
 
Автор Сообщение

torrentc.info

Создавать темы 28-Дек-2017 19:19

[Цитировать]

Clark Terry & Bob Brookmeyer Quintet - Gingerbread Men
Жанр: Mainstream Jazz, Cool
Носитель: CD
Страна-производитель диска (релиза): Великобритания
Год издания: 1991
Издатель (лейбл): Mainstream Records
Номер по каталогу: MDCD 711
Страна исполнителя (группы): США
Аудиокодек: FLAC (*.flac)
Тип рипа: tracks+.cue
Битрейт аудио: lossless
Продолжительность: 42:39
Источник (релизер): canary
Наличие сканов в содержимом раздачи: нет
Треклист:
01. Haig & Haig (Terry) - 4:32
02. I Want a Little Girl (Moll-Mencher) - 4:12
03. Mood Indigo (Bigard-Ellington-Mills) - 6:53
04. Milo's Other Samba (McFarland) - 2:53
05. Gingerbread Boy (Heath) - 2:41
06. My Gal (Terry) - 5:55
07. Naptown (Foust) - 5:29
08. Morning Mist (Johnson) - 3:18
09. Bye Bye Blackbird (Henderson-Dixon) - 6:46
Состав:
Clark Terry - flugelhorn, trumpet
Bob Brookmeyer - trombone
Hank Jones - piano
Dave Bailey - drums
Bob Cranshaw - bass
Recorded in New York in 1966.

Лог создания рипа

Exact Audio Copy V1.3 from 2. September 2016
EAC extraction logfile from 11. July 2017, 21:04
Clark Terry - Bob Brookmeyer Quintet / Gingerbread Men
Used drive : ASUS DRW-24B1ST Adapter: 1 ID: 0
Read mode : SecureUtilize accurate stream : YesDefeat audio cache : YesMake use of C2 pointers : No
Read offset correction : 6Overread into Lead-In and Lead-Out : NoFill up missing offset samples with silence : YesDelete leading and trailing silent blocks : NoNull samples used in CRC calculations : YesUsed interface : Native Win32 interface for Win NT & 2000Gap handling : Appended to previous track
Used output format : User Defined EncoderSelected bitrate : 1024 kBit/sQuality : HighAdd ID3 tag : NoCommand line compressor : C:\Program Files\FLAC 1.3.1\win64\flac.exeAdditional command line options : -8 -e -p -V -T "ARTIST=%artist%" -T "TITLE=%title%" -T "ALBUM=%albumtitle%" -T "DATE=%year%" -T "TRACKNUMBER=%tracknr%" -T "GENRE=%genre%" -T "PERFORMER=%albuminterpret%" -T "COMPOSER=%composer%" %haslyrics%--tag-from-file=LYRICS="%lyricsfile%"%haslyrics% -T "ALBUMARTIST=%albumartist%" -T "DISCNUMBER=%cdnumber%" -T "TOTALDISCS=%totalcds%" -T "TOTALTRACKS=%numtracks%" -T "COMMENT=%comment%" %source% -o %dest%
TOC of the extracted CD
Track | Start | Length | Start sector | End sector --------------------------------------------------------- 1 | 0:00.27 | 4:32.35 | 27 | 20461 2 | 4:32.62 | 4:12.00 | 20462 | 39361 3 | 8:44.62 | 6:52.50 | 39362 | 70311 4 | 15:37.37 | 2:52.73 | 70312 | 83284 5 | 18:30.35 | 2:40.67 | 83285 | 95351 6 | 21:11.27 | 5:54.43 | 95352 | 121944 7 | 27:05.70 | 5:29.02 | 121945 | 146621 8 | 32:34.72 | 3:17.63 | 146622 | 161459 9 | 35:52.60 | 6:45.42 | 161460 | 191876
Track 1
Filename C:\EAC Rips\01 - Haig & Haig.wav
Pre-gap length 0:00:02.36
Peak level 82.9 % Extraction speed 3.5 X Track quality 100.0 % Test CRC 76A413C2 Copy CRC 76A413C2 Accurately ripped (confidence 2) [4707475B] (AR v2) Copy OK
Track 2
Filename C:\EAC Rips\02 - I Want a Little Girl.wav
Pre-gap length 0:00:02.00
Peak level 75.9 % Extraction speed 3.2 X Track quality 99.9 % Test CRC BC829D9E Copy CRC BC829D9E Accurately ripped (confidence 2) [22D40279] (AR v2) Copy OK
Track 3
Filename C:\EAC Rips\03 - Mood Indigo.wav
Pre-gap length 0:00:02.00
Peak level 69.7 % Extraction speed 4.1 X Track quality 99.9 % Test CRC DAC24D49 Copy CRC DAC24D49 Accurately ripped (confidence 2) [03429FF7] (AR v2) Copy OK
Track 4
Filename C:\EAC Rips\04 - Milo's Other Samba.wav
Pre-gap length 0:00:02.00
Peak level 80.7 % Extraction speed 3.4 X Track quality 99.9 % Test CRC E7A8DF93 Copy CRC E7A8DF93 Accurately ripped (confidence 2) [6A2813E9] (AR v2) Copy OK
Track 5
Filename C:\EAC Rips\05 - Gingerbread Boy.wav
Pre-gap length 0:00:03.00
Peak level 66.3 % Extraction speed 4.5 X Track quality 100.0 % Test CRC 47B62D42 Copy CRC 47B62D42 Accurately ripped (confidence 2) [968C81D7] (AR v2) Copy OK
Track 6
Filename C:\EAC Rips\06 - My Gal.wav
Pre-gap length 0:00:03.00
Peak level 73.9 % Extraction speed 4.7 X Track quality 99.9 % Test CRC CE7FA27D Copy CRC CE7FA27D Accurately ripped (confidence 2) [5F4E928D] (AR v2) Copy OK
Track 7
Filename C:\EAC Rips\07 - Naptown.wav
Pre-gap length 0:00:02.00
Peak level 66.3 % Extraction speed 4.9 X Track quality 99.9 % Test CRC 8175B3A0 Copy CRC 8175B3A0 Accurately ripped (confidence 2) [53626A8B] (AR v2) Copy OK
Track 8
Filename C:\EAC Rips\08 - Morning Mist.wav
Pre-gap length 0:00:01.00
Peak level 53.6 % Extraction speed 4.4 X Track quality 99.9 % Test CRC 02F7853B Copy CRC 02F7853B Accurately ripped (confidence 2) [CA2754D5] (AR v2) Copy OK
Track 9
Filename C:\EAC Rips\09 - Bye Bye Blackbird.wav
Pre-gap length 0:00:02.00
Peak level 92.2 % Extraction speed 6.4 X Track quality 100.0 % Test CRC F70C68E6 Copy CRC F70C68E6 Accurately ripped (confidence 2) [3EE771CD] (AR v2) Copy OK
All tracks accurately ripped
No errors occurred
End of status report
---- CUETools DB Plugin V2.1.6
[CTDB TOCID: m8HnlV5.BnGH1Tngur5CStJ3LXA-] foundSubmit result: m8HnlV5.BnGH1Tngur5CStJ3LXA- has been confirmedTrack | CTDB Status 1 | (2/2) Accurately ripped 2 | (2/2) Accurately ripped 3 | (2/2) Accurately ripped 4 | (2/2) Accurately ripped 5 | (2/2) Accurately ripped 6 | (2/2) Accurately ripped 7 | (2/2) Accurately ripped 8 | (2/2) Accurately ripped 9 | (2/2) Accurately ripped
==== Log checksum 020DC95BB2FA05C7342F14B6B6679F1966C2321C029ED37576F84023A8293756 ====

Содержание индексной карты (.CUE)

REM GENRE JazzREM DATE 1966REM DISCID 7409FE09REM COMMENT "ExactAudioCopy v1.3"PERFORMER "Clark Terry & Bob Brookmeyer"TITLE "Gingerbread Men"FILE "01 - Haig & Haig.wav" WAVE TRACK 01 AUDIO TITLE "Haig & Haig" PERFORMER "Clark Terry & Bob Brookmeyer" PREGAP 00:00:27 INDEX 01 00:00:00 TRACK 02 AUDIO TITLE "I Want a Little Girl" PERFORMER "Clark Terry & Bob Brookmeyer" INDEX 00 04:30:35FILE "02 - I Want a Little Girl.wav" WAVE INDEX 01 00:00:00 TRACK 03 AUDIO TITLE "Mood Indigo" PERFORMER "Clark Terry & Bob Brookmeyer" INDEX 00 04:10:00FILE "03 - Mood Indigo.wav" WAVE INDEX 01 00:00:00 TRACK 04 AUDIO TITLE "Milo's Other Samba" PERFORMER "Clark Terry & Bob Brookmeyer" INDEX 00 06:50:50FILE "04 - Milo's Other Samba.wav" WAVE INDEX 01 00:00:00 TRACK 05 AUDIO TITLE "Gingerbread Boy" PERFORMER "Clark Terry & Bob Brookmeyer" INDEX 00 02:49:73FILE "05 - Gingerbread Boy.wav" WAVE INDEX 01 00:00:00 TRACK 06 AUDIO TITLE "My Gal" PERFORMER "Clark Terry & Bob Brookmeyer" INDEX 00 02:37:67FILE "06 - My Gal.wav" WAVE INDEX 01 00:00:00 TRACK 07 AUDIO TITLE "Naptown" PERFORMER "Clark Terry & Bob Brookmeyer" INDEX 00 05:52:43FILE "07 - Naptown.wav" WAVE INDEX 01 00:00:00 TRACK 08 AUDIO TITLE "Morning Mist" PERFORMER "Clark Terry & Bob Brookmeyer" INDEX 00 05:28:02FILE "08 - Morning Mist.wav" WAVE INDEX 01 00:00:00 TRACK 09 AUDIO TITLE "Bye Bye Blackbird" PERFORMER "Clark Terry & Bob Brookmeyer" INDEX 00 03:15:63FILE "09 - Bye Bye Blackbird.wav" WAVE INDEX 01 00:00:00

Отчет CUETools

[CUETools log; Date: 21.12.2017 18:54:13; Version: 2.1.5]Pregap length 00:00:27.[CTDB TOCID: m8HnlV5.BnGH1Tngur5CStJ3LXA-] found.Track | CTDB Status 1 | (3/3) Accurately ripped 2 | (3/3) Accurately ripped 3 | (3/3) Accurately ripped 4 | (3/3) Accurately ripped 5 | (3/3) Accurately ripped 6 | (3/3) Accurately ripped 7 | (3/3) Accurately ripped 8 | (3/3) Accurately ripped 9 | (3/3) Accurately ripped[AccurateRip ID: 000e3390-00682d3b-7409fe09] found.Track [ CRC | V2 ] Status 01 [90a9d03c|4707475b] (2+2/4) Accurately ripped 02 [b86f2b77|22d40279] (2+2/4) Accurately ripped 03 [6af95eb5|03429ff7] (2+2/4) Accurately ripped 04 [e9d40e53|6a2813e9] (2+2/4) Accurately ripped 05 [350d7435|968c81d7] (2+2/4) Accurately ripped 06 [440ff6ee|5f4e928d] (2+2/4) Accurately ripped 07 [f7457055|53626a8b] (2+2/4) Accurately ripped 08 [cf832465|ca2754d5] (2+2/4) Accurately ripped 09 [e776e508|3ee771cd] (2+2/4) Accurately ripped
Track Peak [ CRC32 ] [W/O NULL] [ LOG ] -- 92,2 [D047C15F] [2710A975] 01 82,9 [76A413C2] [9AED99A4] CRC32 02 75,9 [BC829D9E] [93A35A63] CRC32 03 69,7 [DAC24D49] [4A911456] CRC32 04 80,7 [E7A8DF93] [DDC4642E] CRC32 05 66,3 [47B62D42] [3082E83A] CRC32 06 73,9 [CE7FA27D] [ADC8E28A] CRC32 07 66,3 [8175B3A0] [548FA70C] CRC32 08 53,6 [02F7853B] [A59A2F84] CRC32 09 92,2 [F70C68E6] [4349A891] CRC32

AllMusic Review by Jason Ankeny

Perhaps because trumpeter Clark Terry and trombonist Bob Brookmeyer spent the majority of their respective careers as sidemen, they retain a remarkable spirit of generosity and unity as leaders. For all the virtuosity on display across Gingerbread Men, what impresses most is the selfless coherence of the session as a whole. Pianist Hank Jones, bassist Bob Cranshaw, and drummer Dave Bailey further underline the joie de vivre that characterizes the album, playing with exuberance and creativity. For all the music's visceral punch, it still boasts an uncommon and most welcome elegance.


[torrentc.info]_t_5496492.torrent
Торрент: Зарегистрирован ·  [ 2017-12-28 19:18 ] ·  cb2cb594a5ee56e7fa7ec03a8972aef84c613007

20 KB

Статус: проверено
Скачан: 0 раз
Размер: 233 MB
Оценка: 
(Голосов: 0)
Сказали спасибо: 0  Спасибо
Похожие темы
[Профиль]    [ЛС]
Показать сообщения:    
Ответить на тему

Текущее время: Сегодня 18:35

Часовой пояс: GMT + 7



Вы не можете начинать темы
Вы не можете отвечать на сообщения
Вы не можете редактировать свои сообщения
Вы не можете удалять свои сообщения
Вы не можете голосовать в опросах
Вы не можете прикреплять файлы к сообщениям
Вы можете скачивать файлы