(RnB, Pop Rap) [CDM] Flip Da Scrip - I Never Told You - 1997, FLAC (tracks+.cue), lossless

Ответить на тему
Статистика раздачи [Обновить пиров]
Размер:  156 MB   |    Зарегистрирован:  10 месяцев 20 дней   |    Скачан:  0 раз

Полного источника не было: Никогда

 
   
 
 
 
Автор Сообщение

torrentc.info

Создавать темы 27-Дек-2017 18:42

[Цитировать]

Flip Da Scrip / I Never Told You
Жанр: RnB, Pop Rap
Носитель: CDM
Год издания: 1997
Издатель (лейбл): Nightown Records
Номер по каталогу: NTR 665077 2
Аудиокодек: FLAC (*.flac)
Тип рипа: tracks+.cue
Битрейт аудио: lossless
Продолжительность: 17:54
Источник (релизер): собственный рип
Наличие сканов в содержимом раздачи: да
Треклист:
01. Flip Da Scrip - I Never Told You (Radio Mix) [4:00]
02. Flip Da Scrip - I Never Told You (U.S. Mix) [3:57]
03. Flip Da Scrip - I Never Told You (Extended Radio Mix) [6:25]
04. Flip Da Scrip - I Never Told You (DJ Quick Mix) [3:33]

Лог создания рипа

Exact Audio Copy V1.3 from 2. September 2016
EAC extraction logfile from 29. November 2017, 22:01
Flip Da Scrip / I Never Told You
Used drive : ASUS DRW-24B5ST Adapter: 6 ID: 0
Read mode : SecureUtilize accurate stream : YesDefeat audio cache : YesMake use of C2 pointers : No
Read offset correction : 6Overread into Lead-In and Lead-Out : NoFill up missing offset samples with silence : YesDelete leading and trailing silent blocks : NoNull samples used in CRC calculations : YesUsed interface : Installed external ASPI interfaceGap handling : Appended to previous track
Used output format : User Defined EncoderSelected bitrate : 128 kBit/sQuality : HighAdd ID3 tag : NoCommand line compressor : D:\flac-1.3.2-win\win64\flac.exeAdditional command line options : -8 -V -T "ARTIST=%artist%" -T "TITLE=%title%" -T "ALBUM=%albumtitle%" -T "DATE=%year%" -T "TRACKNUMBER=%tracknr%" -T "GENRE=%genre%" -T "COMMENT=ripped by Andy aka yetiisyou" %source%
TOC of the extracted CD
Track | Start | Length | Start sector | End sector --------------------------------------------------------- 1 | 0:00.00 | 4:00.00 | 0 | 17999 2 | 4:00.00 | 3:56.50 | 18000 | 35749 3 | 7:56.50 | 6:25.00 | 35750 | 64624 4 | 14:21.50 | 3:32.50 | 64625 | 80574
Track 1
Filename E:\!Ripped by Andy aka yetiisyou\Flip Da Scrip - I Never Told You [NTR 665077 2] [1997]\01. Flip Da Scrip - I Never Told You (Radio Mix).wav
Pre-gap length 0:00:02.00
Peak level 98.0 % Extraction speed 2.8 X Track quality 99.9 % Test CRC 890ACD00 Copy CRC 890ACD00 Accurately ripped (confidence 5) [6598AB09] (AR v2) Copy OK
Track 2
Filename E:\!Ripped by Andy aka yetiisyou\Flip Da Scrip - I Never Told You [NTR 665077 2] [1997]\02. Flip Da Scrip - I Never Told You (U.S. Mix).wav
Pre-gap length 0:00:01.28
Peak level 99.9 % Extraction speed 3.8 X Track quality 100.0 % Test CRC D1536C02 Copy CRC D1536C02 Accurately ripped (confidence 5) [97D3F89F] (AR v2) Copy OK
Track 3
Filename E:\!Ripped by Andy aka yetiisyou\Flip Da Scrip - I Never Told You [NTR 665077 2] [1997]\03. Flip Da Scrip - I Never Told You (Extended Radio Mix).wav
Pre-gap length 0:00:01.18
Peak level 98.0 % Extraction speed 4.5 X Track quality 100.0 % Test CRC 3C0FE357 Copy CRC 3C0FE357 Accurately ripped (confidence 5) [ABE4DA79] (AR v2) Copy OK
Track 4
Filename E:\!Ripped by Andy aka yetiisyou\Flip Da Scrip - I Never Told You [NTR 665077 2] [1997]\04. Flip Da Scrip - I Never Told You (DJ Quick Mix).wav
Pre-gap length 0:00:01.13
Peak level 98.3 % Extraction speed 4.5 X Track quality 100.0 % Test CRC F7CE8DF3 Copy CRC F7CE8DF3 Accurately ripped (confidence 5) [7D9D001D] (AR v2) Copy OK
All tracks accurately ripped
No errors occurred
End of status report
---- CUETools DB Plugin V2.1.6
[CTDB TOCID: cmw0yVH6wpGaYsyPYJoAhWza1G0-] foundSubmit result: cmw0yVH6wpGaYsyPYJoAhWza1G0- has been confirmedTrack | CTDB Status 1 | (22/22) Accurately ripped 2 | (22/22) Accurately ripped 3 | (22/22) Accurately ripped 4 | (22/22) Accurately ripped
==== Log checksum 7DC872DF20493296D496D538A2E14C31835B23963A48408D1751751EEC150AF4 ====

Содержание индексной карты (.CUE)

REM DATE 1997REM DISCID 2E043204REM COMMENT "ExactAudioCopy v1.3"CATALOG 5099766507750PERFORMER "Flip Da Scrip"TITLE "I Never Told You"REM COMPOSER ""FILE "01. Flip Da Scrip - I Never Told You (Radio Mix).wav" WAVE TRACK 01 AUDIO TITLE "I Never Told You (Radio Mix)" PERFORMER "Flip Da Scrip" REM COMPOSER "" ISRC DEG369700026 INDEX 01 00:00:00 TRACK 02 AUDIO TITLE "I Never Told You (U.S. Mix)" PERFORMER "Flip Da Scrip" REM COMPOSER "" ISRC DEG369700027 INDEX 00 03:58:47FILE "02. Flip Da Scrip - I Never Told You (U.S. Mix).wav" WAVE INDEX 01 00:00:00 TRACK 03 AUDIO TITLE "I Never Told You (Extended Radio Mix)" PERFORMER "Flip Da Scrip" REM COMPOSER "" ISRC DEG369700028 INDEX 00 03:55:32FILE "03. Flip Da Scrip - I Never Told You (Extended Radio Mix).wav" WAVE INDEX 01 00:00:00 TRACK 04 AUDIO TITLE "I Never Told You (DJ Quick Mix)" PERFORMER "Flip Da Scrip" REM COMPOSER "" ISRC DEG369700029 INDEX 00 06:23:62FILE "04. Flip Da Scrip - I Never Told You (DJ Quick Mix).wav" WAVE INDEX 01 00:00:00


[torrentc.info]_t_5497753.torrent
Торрент: Зарегистрирован ·  [ 2017-12-27 18:42 ] ·  9ace76f8597685cb4ea9286c7005a60e7c82307f

13 KB

Статус: проверено
Скачан: 0 раз
Размер: 156 MB
Оценка: 
(Голосов: 0)
Сказали спасибо: 0  Спасибо
[Профиль]    [ЛС]
Показать сообщения:    
Ответить на тему

Текущее время: Сегодня 20:55

Часовой пояс: GMT + 7



Вы не можете начинать темы
Вы не можете отвечать на сообщения
Вы не можете редактировать свои сообщения
Вы не можете удалять свои сообщения
Вы не можете голосовать в опросах
Вы не можете прикреплять файлы к сообщениям
Вы можете скачивать файлы