Машинки (Сериал для мальчиков) / Серии: 1-33 [2015-2017, детский, обучающий, WEBRip 1080p,, rus] (мультфильм)

Ответить на тему
Статистика раздачи [Обновить пиров]
Размер:  1.54 GB   |    Зарегистрирован:  5 месяцев 27 дней   |    Скачан:  5 раз

Полного источника не было: 4 дня

 
   
 
 
 
Автор Сообщение

torrentc.info

Создавать темы 25-Дек-2017 22:00

[Цитировать]

Машинки
(Сериал для мальчиков)
- Страна: Россия
Студия: Летающие Звери, Анимационная студия "Да"
Жанр: детский, обучающий
Продолжительность: ~00:06:00 каждая
Год выхода: 2015-2017
Режиссер: Михаил Сафронов
В ролях: Юра Зарубин, Михаил Хрусталев
Возраст: 0+
Сюжет фильма:
Великолепный развивающий мультфильм для мальчиков и их пап, который учит добру и взаимопомощи. Каждый эпизод – это доступный и понятный рассказ об автомобилях самых разных видов. Мальчик Коля играет в своей комнате вместе с лучшим другом – настоящим цирковым слоном Прабу, который рассказывает малышу интересные истории про грузовые машины и спецтехнику. Например, про хлебовоз, водитель которого просыпается очень рано, чтобы доставить свежую выпечку в магазины. В машине есть мощный мотор, кабина для водителя и большой кузов для груза. Кроме грузовиков существует и специальная техника – снегоуборочные машины. У такой машины большие колеса, чтобы не застрять в сугробах и железный отвал, чтобы разгребать снег. Пожарная машина – это одна из самых важных машин в наше время. У нее есть шланг, чтобы тушить пожар и длинная лестница для спасения людей из огня. Такая машина всегда мчится с большой скоростью, она легко узнаваема по громкой сирене, чтобы другие автомобили обязательно уступили дорогу пожарникам.
«Летающие звери» — благотворительный сериал: прибыль идет на лечение детей.-Качество видео: WEBRip 1080p
Формат файла: mp4
Видео: кодек: AVC, размер кадра: 1920x1080 (16:9), битрейт: ~2000 кб/с, частота кадров: ~25 кадра/сек
Аудио: язык: русский (оригинал), частота дискретизации: 44100 Гц, аудиокодек: AAC, 2 ch, битрейт аудио: 126 кб/с-Список серий
  • Пожарная машина
  • Снегоуборочная машина
  • Грузовая машина
  • Минивэн
  • На заправке
  • Эвакуатор
  • Поливальная машина
  • На пароме
  • На парковке
  • Трактор
  • На переезде
  • Смарт
  • На обочине
  • Полицейская машина
  • На светофоре
  • Бульдозер
  • Автобус
  • В час пик
  • Авторефрижератор
  • В аварии
  • Каток
  • На мойке
  • На границе
  • На Сафари
  • На дорожной развязке
  • В гололёд
  • Президентский кортеж
  • В автосалоне
  • В автопрокате
  • На автосвалке
  • На мосту
  • Почтовый фургон
  • Лимузин

MediaInfo

ОбщееПолное имя : \Машинки. Сериал для мальчиков\Машинки 002 - Снегоуборочная машина.mp4Формат файла : MPEG-4Профиль формата : Base MediaИдентификатор кодека : isomРазмер файла : 89,8 МбайтПродолжительность : 6 м. 0 с.Общий поток : 2091 Кбит/секПрограмма кодирования : Lavf56.40.101
ВидеоИдентификатор : 1Формат файла : AVCФормат файла/Информация : Advanced Video CodecПрофиль формата : High@L4Параметр CABAC формата : ДаПараметр ReFrames формата : 3 кадраИдентификатор кодека : avc1Идентификатор кодека/Информация : Advanced Video CodingПродолжительность : 5 м. 59 с.Duration_FirstFrame : -40 мс.Битрейт : 1960 Кбит/секШирина : 1920 пикселейВысота : 1080 пикселейСоотношение сторон : 16:9Режим частоты кадров : ПеременныйЧастота кадров : 25,000 кадров/секМинимальная частота кадров : 25,000 кадров/секМаксимальная частота кадров : 25,014 кадров/секЦветовое пространство : YUVСубдискретизация насыщенности : 4:2:0Битовая глубина : 8 битТип развёртки : ПрогрессивнаяБит/(Пиксели*Кадры) : 0.038Размер потока : 84,1 Мбайт (94%)Цветовой диапазон : LimitedОсновные цвета : BT.709Характеристики трансфера : BT.709Коэффициенты матрицы : BT.709
АудиоИдентификатор : 2Формат файла : AACФормат файла/Информация : Advanced Audio CodecПрофиль формата : LCИдентификатор кодека : 40Продолжительность : 6 м. 0 с.Вид битрейта : ПостоянныйБитрейт : 126 Кбит/секКаналы : 2 каналаРасположение каналов : Front: L RЧастота : 44,1 КГцМетод сжатия : С потерямиРазмер потока : 5,39 Мбайт (6%)

Скриншоты

Источник

Летающие Звери (youtube)
Обрезал рекламу.

Мои рекомендации

[url=tracker.php?nm=%D0%9C%D0%B0%D1%88%D0%B8%D0%BD%D0%BA%D0%B8%20%D0%A1%D0%B5%D1%80%D0%B8%D0%B0%D0%BB%20%D0%B4%D0%BB%D1%8F%20%D0%BC%D0%B0%D0%BB%D1%8C%D1%87%D0%B8%D0%BA%D0%BE%D0%B2&o=11]Машинки (Сериал для мальчиков) [детский, обучающий][/url]
[url=tracker.php?nm=%D0%93%D1%80%D1%83%D0%B7%D0%BE%D0%B2%D0%B8%D1%87%D0%BE%D0%BA%20%D0%9B%D1%91%D0%B2%D0%B0&o=11]Грузовичок Лёва [детский, развивающий][/url]
[url=tracker.php?nm=%D0%A7%D0%B5%D1%82%D1%8B%D1%80%D0%B5%20%D0%BC%D0%B0%D1%88%D0%B8%D0%BD%D0%BA%D0%B8&o=11]Четыре машинки [детский, развивающий][/url]
[url=tracker.php?nm=%D0%92%D0%B5%D1%81%D0%B5%D0%BB%D1%8B%D0%B9%20%D0%BA%D0%BE%D0%BD%D1%81%D1%82%D1%80%D1%83%D0%BA%D1%82%D0%BE%D1%80&o=11]Веселый конструктор [детский, развивающий][/url]
[url=tracker.php?nm=%20%D0%9C%D0%B0%D0%BB%D1%8B%D1%88%D0%B0%D1%80%D0%B8%D0%BA%D0%B8&o=11]Малышарики [обучающий, детский][/url]
[url=tracker.php?nm=%D0%9A%D0%BE%D1%82%D0%B8%D0%BA%D0%B8%2C%20%D0%B2%D0%BF%D0%B5%D1%80%D0%B5%D0%B4&o=11]Котики, вперед! [обучающий, детский][/url]
[url=tracker.php?nm=%D0%A4%D0%B8%D0%BA%D1%81%D0%B8%D0%BA%D0%B8&o=11]Фиксики [семейный, познавательный][/url]
[url=tracker.php?nm=%09%D0%91%D1%83%D1%80%D1%91%D0%BD%D0%BA%D0%B0%20%D0%94%D0%B0%D1%88%D0%B0&o=11]Бурёнка Даша [детский, караоке][/url]
[url=tracker.php?nm=%D0%9B%D0%B5%D1%82%D0%B0%D1%8E%D1%89%D0%B8%D0%B5%20%D0%97%D0%B2%D0%B5%D1%80%D0%B8&o=11]Летающие Звери [детский][/url]
[url=tracker.php?nm=%D0%A1%D0%BC%D0%B5%D1%88%D0%B0%D1%80%D0%B8%D0%BA%D0%B8&o=11]Смешарики, Пин-код [семейный, познавательный][/url]
[url=tracker.php?nm=%D0%9C%D0%B8-%D0%BC%D0%B8-%D0%BC%D0%B8%D1%88%D0%BA%D0%B8&o=11]Ми-ми-мишки [детский][/url]

Внимание! Раздача ведётся путём добавления новых выпусков.

Раздача ведётся путём добавления новых выпусков. При каждом добавлении создётся новый торрент. Чтобы начать докачку новой серии, пользователям необходимо сделать следующее:
(1) остановить скачивание,
(2) удалить старый торрент у себя из клиента (старые серии удалять не надо),
(3) скачать новый торрент и запустить его у себя в клиенте вместо старого, при этом указать клиенту путь в старую папку куда и должно происходить скачивание новых серий.
Ваш клиент при этом должен произвести хеширование (проверку) старой папки (если не производит сам - помогите ему сделать это), и будет докачивать только те серии которых у вас ещё нет. Старые серии при этом не удаляются, а продолжают раздаваться!
Eсли вы уже удалили старые серии, то предотвратить повторную закачку старых серий можно, отжав галочку в соответсвующих местах при запуске нового торрента.


[torrentc.info]_t_5497480.torrent
Торрент: Зарегистрирован ·  [ 2017-12-25 22:00 ] ·  9530a25f35c8c13d2f6cbf97a20c45711e9cf047

18 KB

Статус: проверено
Скачан: 5 раз
Размер: 1.54 GB
Оценка: 
(Голосов: 0)
Сказали спасибо: 0  Спасибо
Похожие темы
[Профиль]    [ЛС]

torrentc.info

Создавать темы 05-Янв-2018 22:50 (спустя 11 дней)

[Цитировать]

Генри, Привет. почему-то отсутствует торрент к этой раздаче : Машинки (Сериал для мальчиков)
Очень нужно скачать малой балдеет от них. можно исправить как-то? или вышли торрент на мыло : sarmatosa@mail.ru
Заранее спасибо!
[Профиль]    [ЛС]
Показать сообщения:    
Ответить на тему

Текущее время: Сегодня 17:52

Часовой пояс: GMT + 7



Вы не можете начинать темы
Вы не можете отвечать на сообщения
Вы не можете редактировать свои сообщения
Вы не можете удалять свои сообщения
Вы не можете голосовать в опросах
Вы не можете прикреплять файлы к сообщениям
Вы можете скачивать файлы