(Breaks, Future Jazz, Jazzdance) Ursula 1000 - Ursadelica - 2004, FLAC (tracks+.cue), lossless

Ответить на тему
Статистика раздачи [Обновить пиров]
Размер:  448 MB   |    Зарегистрирован:  9 месяцев 6 дней   |    Скачан:  0 раз

Полного источника не было: Никогда

 
   
 
 
 
Автор Сообщение

torrentc.info

Создавать темы 15-Дек-2017 03:12

[Цитировать]

Ursula 1000 - Ursadelica
Жанр: Breaks, Future Jazz, Jazzdance
Год выхода диска: 2004
Лэйбл: ESL Music
Cat: ESL 079
Производитель диска: US
Аудио кодек: FLAC
Тип рипа: tracks+.cue
Битрейт аудио: lossless
Продолжительность: 01:16:16
Трэклист:
01 Ursula 1000 - Set Your Controls To Ursadelica (0:34)
02 Dr. Rubberfunk - Bossa For The Devil (3:04)
03 HAL 9000 feat. Slyvie Marks - Bay Bay Bay (3:03)
04 Carlos Jean - Mr. Dabada (3:09)
05 Ed Royal - Born To Funk (3:09)
06 Lemon - Won't You Join Me For A Drink? (3:43)
07 Kraak & Smaak - One Of These Days (4:42)
08 Frank De Jojo - Come Home Baby (3:13)
09 Nasty Tales And Their Orchestra - Come On A My House (4:29)
10 Gaijin A Go-Go - Tempura Mental (Ursula 1000 Remix) (4:43)
11 Tata Vasquez - Suite Guaracho Pt.2 (Beatfanatic Rework) (5:05)
12 Settebello Unlimited - Charrango (4:26)
13 Skeewiff - Nitty Gritty (3:19)
14 The Bees - Chicken Payback (3:08)
15 Joe Bataan - Chick A Boom (3:43)
16 Torpedo Boyz - Gimme A Bassline! (3:23)
17 Moston & Malente - In The Sky (4:06)
18 The Fort Knox Five - The Big Score (Dropped Remix) (5:37)
19 Qypthone - Moustache (3:52)
20 Don Tiki - The Other Side Of The Moon (Ursula 1000 Remix) (5:39)
Доп. информация: Сканы присутствуют.

Отчёт EAC

Exact Audio Copy V0.99 prebeta 4 from 23. January 2008
Отчёт EAC об извлечении, выполненном 16. августа 2009, 16:11
Various / Ursadelica
Дисковод: Optiarc DVD RW AD-5170A Adapter: 0 ID: 1
Режим чтения : ДостоверностьИспользование точного потока : ДаОтключение кэша аудио : ДаИспользование указателей C2 : Нет
Коррекция смещения при чтении : 48Способность читать области Lead-in и Lead-out : НетЗаполнение пропущенных сэмплов тишиной : ДаУдаление блоков с тишиной в начале и конце : НетПри вычислениях CRC использовались нулевые сэмплы : ДаИнтерфейс : Установленный внешний ASPI-интерфейсОбработка зазоров : Добавлено к предыдущему треку
Выходной формат : Пользовательский кодировщикВыбранный битрейт : 768 kBit/sКачество : ВысокийДобавление ID3-тэга : НетУтилита сжатия : C:\Program Files\Exact Audio Copy\FLAC\FLAC.EXEДополнительные параметры : -6 -V -T "ARTIST=%a" -T "TITLE=%t" -T "ALBUM=%g" -T "DATE=%y" -T "TRACKNUMBER=%n" -T "GENRE=%m" -T "COMMENT=%e" %s -o %d
TOC извлечённого CD
Трек | Старт | Длительность | Начальный сектор | Конечный сектор --------------------------------------------------------------------- 1 | 0:00.00 | 0:34.57 | 0 | 2606 2 | 0:34.57 | 3:04.17 | 2607 | 16423 3 | 3:38.74 | 3:03.16 | 16424 | 30164 4 | 6:42.15 | 3:09.52 | 30165 | 44391 5 | 9:51.67 | 3:09.08 | 44392 | 58574 6 | 13:01.00 | 3:43.33 | 58575 | 75332 7 | 16:44.33 | 4:42.10 | 75333 | 96492 8 | 21:26.43 | 3:13.21 | 96493 | 110988 9 | 24:39.64 | 4:29.70 | 110989 | 131233 10 | 29:09.59 | 4:43.05 | 131234 | 152463 11 | 33:52.64 | 5:05.45 | 152464 | 175383 12 | 38:58.34 | 4:26.73 | 175384 | 195406 13 | 43:25.32 | 3:19.69 | 195407 | 210400 14 | 46:45.26 | 3:08.06 | 210401 | 224506 15 | 49:53.32 | 3:43.25 | 224507 | 241256 16 | 53:36.57 | 3:23.69 | 241257 | 256550 17 | 57:00.51 | 4:06.38 | 256551 | 275038 18 | 61:07.14 | 5:37.57 | 275039 | 300370 19 | 66:44.71 | 3:52.29 | 300371 | 317799 20 | 70:37.25 | 5:39.02 | 317800 | 343226
Трек 1
Имя файла C:\Downloads\Torrents\Ursadelica\01. Ursula 1000 - Set Your Controls To Ursadelica.wav
Длина предзазора 0:00:02.00
Пиковый уровень 100.0 % Качество трека 100.0 % CRC теста EAEE4B44 CRC копии EAEE4B44 Копирование... OK
Трек 2
Имя файла C:\Downloads\Torrents\Ursadelica\02. Dr. Rubberfunk - Bossa For The Devil.wav
Пиковый уровень 80.1 % Качество трека 100.0 % CRC теста EFB648BC CRC копии EFB648BC Копирование... OK
Трек 3
Имя файла C:\Downloads\Torrents\Ursadelica\03. HAL 9000 feat. Sylvie Marks - Bay Bay Bay.wav
Пиковый уровень 100.0 % Качество трека 100.0 % CRC теста A0185D68 CRC копии A0185D68 Копирование... OK
Трек 4
Имя файла C:\Downloads\Torrents\Ursadelica\04. Carlos Jean - Mr. Dabada.wav
Пиковый уровень 100.0 % Качество трека 100.0 % CRC теста DE069DE2 CRC копии DE069DE2 Копирование... OK
Трек 5
Имя файла C:\Downloads\Torrents\Ursadelica\05. Ed Royal feat. Enne - Born To Funk.wav
Пиковый уровень 100.0 % Качество трека 100.0 % CRC теста 4845389B CRC копии 4845389B Копирование... OK
Трек 6
Имя файла C:\Downloads\Torrents\Ursadelica\06. Lemon - Won't You Join Me For A Drink .wav
Пиковый уровень 100.0 % Качество трека 100.0 % CRC теста AB42E8D3 CRC копии AB42E8D3 Копирование... OK
Трек 7
Имя файла C:\Downloads\Torrents\Ursadelica\07. Kraak en Smaak - One Of These Days.wav
Пиковый уровень 100.0 % Качество трека 100.0 % CRC теста 7B0BFA8A CRC копии 7B0BFA8A Копирование... OK
Трек 8
Имя файла C:\Downloads\Torrents\Ursadelica\08. Frank De Jojo - Come Home Baby.wav
Пиковый уровень 100.0 % Качество трека 99.9 % CRC теста 78B2D9CF CRC копии 78B2D9CF Копирование... OK
Трек 9
Имя файла C:\Downloads\Torrents\Ursadelica\09. Nasty Tales and their Orchestra - Come On A My House.wav
Пиковый уровень 100.0 % Качество трека 100.0 % CRC теста FD71BF4D CRC копии FD71BF4D Копирование... OK
Трек 10
Имя файла C:\Downloads\Torrents\Ursadelica\10. Gaijin A Go Go - Tempura Mental [Ursula 1000 Remix].wav
Пиковый уровень 100.0 % Качество трека 100.0 % CRC теста 63C8A245 CRC копии 63C8A245 Копирование... OK
Трек 11
Имя файла C:\Downloads\Torrents\Ursadelica\11. Tata Vasquez - Suite Guaracho Pt.2 [Beatfanatic Rework].wav
Пиковый уровень 100.0 % Качество трека 97.8 % CRC теста 7C505727 CRC копии 697F3B95 Копирование... OK
Трек 12
Имя файла C:\Downloads\Torrents\Ursadelica\12. Settebello Unlimited - Charrango.wav
Пиковый уровень 100.0 % Качество трека 97.3 % CRC теста D70D1F39 CRC копии D70D1F39 Копирование... OK
Трек 13
Имя файла C:\Downloads\Torrents\Ursadelica\13. Skeewiff - Nitty Gritty.wav
Пиковый уровень 100.0 % Качество трека 99.9 % CRC теста C7F35B43 CRC копии C7F35B43 Копирование... OK
Трек 14
Имя файла C:\Downloads\Torrents\Ursadelica\14. The Bees - Chicken Payback.wav
Пиковый уровень 91.7 % Качество трека 100.0 % CRC теста E1041D76 CRC копии E1041D76 Копирование... OK
Трек 15
Имя файла C:\Downloads\Torrents\Ursadelica\15. Joe Bataan - Chick A Boom.wav
Пиковый уровень 100.0 % Качество трека 100.0 % CRC теста DED9008F CRC копии DED9008F Копирование... OK
Трек 16
Имя файла C:\Downloads\Torrents\Ursadelica\16. Torpedo Boyz - Gimme A Bassline!.wav
Пиковый уровень 100.0 % Качество трека 100.0 % CRC теста CB3773A4 CRC копии CB3773A4 Копирование... OK
Трек 17
Имя файла C:\Downloads\Torrents\Ursadelica\17. Moston and Malente - In The Sky.wav
Пиковый уровень 100.0 % Качество трека 100.0 % CRC теста EC5BC1F1 CRC копии EC5BC1F1 Копирование... OK
Трек 18
Имя файла C:\Downloads\Torrents\Ursadelica\18. Fort Knox Five - The Big Score [Dropped Remix].wav
Пиковый уровень 100.0 % Качество трека 100.0 % CRC теста F132DD6D CRC копии F132DD6D Копирование... OK
Трек 19
Имя файла C:\Downloads\Torrents\Ursadelica\19. Qypthone - Moustache.wav
Пиковый уровень 100.0 % Качество трека 100.0 % CRC теста 1488D561 CRC копии 1488D561 Копирование... OK
Трек 20
Имя файла C:\Downloads\Torrents\Ursadelica\20. Don Tiki - The Other Side Of The Moon [Ursula 1000 Remix].wav
Пиковый уровень 100.0 % Качество трека 99.9 % CRC теста B42BB457 CRC копии B42BB457 Копирование... OK
Ошибок не произошло
Конец отчёта


[torrentc.info]_t_2112099.torrent
Торрент: Зарегистрирован ·  [ 2017-12-15 03:12 ] ·  7a05d5766399795f216a7dffdd569178671f9b9d

20 KB

Статус: проверено
Скачан: 0 раз
Размер: 448 MB
Оценка: 
(Голосов: 0)
Сказали спасибо: 0  Спасибо
Похожие темы
[Профиль]    [ЛС]
Показать сообщения:    
Ответить на тему

Текущее время: Сегодня 07:14

Часовой пояс: GMT + 7



Вы не можете начинать темы
Вы не можете отвечать на сообщения
Вы не можете редактировать свои сообщения
Вы не можете удалять свои сообщения
Вы не можете голосовать в опросах
Вы не можете прикреплять файлы к сообщениям
Вы можете скачивать файлы