Yello • 51th Montreux Jazz Festival [2017, Synthpop, Electronic, HDTV, 720p]

Ответить на тему
Статистика раздачи [Обновить пиров]
Размер:  2.74 GB   |    Зарегистрирован:  1 месяц 3 дня   |    Скачан:  0 раз

Полного источника не было: Никогда

 
   
 
 
 
Автор Сообщение

torrentc.info

Создавать темы 14-Дек-2017 23:52

[Цитировать]


Yello


Жанр: Synthpop, Electronic
Продолжительность: 00:33:38
Год выхода: 2017
Качество: HDTV
Разрешение видео/развертка: 720p
Формат файла: TS
Видео кодек: H.264
Аудио кодек: AC3, MP2
Видео: MPEG4 Video (H264) 1280x720 50fps 10.2 Mb/s
Аудио: Dolby AC3 48000Hz 6ch 448kbps
Аудио 2: MPEG Audio 48000Hz stereo 192kbps

Треклист


01. Interview
02. Do It
03. Interview
04. Bostich
05 Interview
06. Vicious Games (ft.Heidi Happy)
07. Interview
08. Oh Yeah
09. Interview
10 The Race

Отчёт MediaInfo / BDInfo

GeneralID : 12300 (0x300C)Complete name : Z:\HDTV\Montreux Jazz Festival\Yello - Montreux Jazz Festival (2017) .tsFormat : MPEG-TSFile size : 2.74 GiBDuration : 33 min 37 sOverall bit rate mode : VariableOverall bit rate : 11.7 Mb/s
VideoID : 542 (0x21E)Menu ID : 17204 (0x4334)Format : AVCFormat/Info : Advanced Video CodecFormat profile : High@L4Format settings, CABAC : YesFormat settings, RefFrames : 3 framesFormat settings, GOP : M=2, N=24Codec ID : 27Duration : 33 min 37 sBit rate : 10.2 Mb/sWidth : 1 280 pixelsHeight : 720 pixelsDisplay aspect ratio : 16:9Frame rate : 50.000 FPSStandard : ComponentColor space : YUVChroma subsampling : 4:2:0Bit depth : 8 bitsScan type : ProgressiveBits/(Pixel*Frame) : 0.222Stream size : 2.40 GiB (88%)Encryption : TPS-Crypt or ViaccessColor range : LimitedColor primaries : BT.709Transfer characteristics : BT.709Matrix coefficients : BT.709
Audio #1ID : 543 (0x21F)Menu ID : 17204 (0x4334)Format : MPEG AudioFormat version : Version 1Format profile : Layer 2Mode : Joint stereoMode extension : Intensity Stereo + MS StereoCodec ID : 3Duration : 33 min 37 sBit rate mode : ConstantBit rate : 192 kb/sChannel(s) : 2 channelsSampling rate : 48.0 kHzCompression mode : LossyDelay relative to video : -228 msStream size : 46.2 MiB (2%)Language : FrenchLanguage, more info : Clean effectsEncryption : TPS-Crypt or Viaccess
Audio #2ID : 544 (0x220)Menu ID : 17204 (0x4334)Format : MPEG AudioFormat version : Version 1Format profile : Layer 2Mode : Joint stereoMode extension : Intensity Stereo + MS StereoCodec ID : 3Duration : 33 min 37 sBit rate mode : ConstantBit rate : 192 kb/sChannel(s) : 2 channelsSampling rate : 48.0 kHzCompression mode : LossyDelay relative to video : -228 msStream size : 46.2 MiB (2%)Language : EnglishLanguage, more info : Clean effectsEncryption : TPS-Crypt or Viaccess
Audio #3ID : 545 (0x221)Menu ID : 17204 (0x4334)Format : AC-3Format/Info : Audio Coding 3Format settings, Endianness : BigCodec ID : 6Duration : 33 min 37 sBit rate mode : ConstantBit rate : 448 kb/sChannel(s) : 6 channelsChannel positions : Front: L C R, Side: L R, LFESampling rate : 48.0 kHzFrame rate : 31.250 FPS (1536 SPF)Bit depth : 16 bitsCompression mode : LossyDelay relative to video : -228 msStream size : 108 MiB (4%)Language : FrenchLanguage, more info : Clean effectsService kind : Complete MainEncryption : TPS-Crypt or Viaccess
Мои раздачи ®">

Скриншоты Мои раздачи ®


[url=tracker.php?rid=9539252]http://Torrentc/forum/tracker.php?rid=9539252[/url]


[torrentc.info]_t_5491914.torrent
Торрент: Зарегистрирован ·  [ 2017-12-14 23:48 ] ·  10ce23959d83aa91b7cfa9cd37a6f916fa0ecd23

14 KB

Статус: проверено
Скачан: 0 раз
Размер: 2.74 GB
Оценка: 
(Голосов: 0)
Сказали спасибо: 0  Спасибо
Похожие темы
[Профиль]    [ЛС]
Показать сообщения:    
Ответить на тему

Текущее время: Сегодня 22:45

Часовой пояс: GMT + 7



Вы не можете начинать темы
Вы не можете отвечать на сообщения
Вы не можете редактировать свои сообщения
Вы не можете удалять свои сообщения
Вы не можете голосовать в опросах
Вы не можете прикреплять файлы к сообщениям
Вы можете скачивать файлы