Patricia Kaas - Kaas Chante Piaf - Musique Acoustic от 16.02.2013 - TV5MONDE (Филипп Сомме / Philippe Sommet) [2013, French Chanson, Live, DVB]

Ответить на тему
Статистика раздачи [Обновить пиров]
Размер:  628 MB   |    Зарегистрирован:  4 месяца 13 дней   |    Скачан:  0 раз

Полного источника не было: Никогда

 
   
 
 
 
Автор Сообщение

torrentc.info

Создавать темы 14-Дек-2017 11:42

[Цитировать]

Patricia Kaas - Kaas Chante Piaf
Musique Acoustic от 16.02.2013 - TV5MONDE- Страна: Франция
Жанр: French Chanson, Live
Продолжительность: 00:26:45
Год выхода: 2013 г.
Режиссер: Филипп Сомме / Philippe Sommet
Описание: Музыкальная передача Musique Acoustic канала французского телевидения TV5MONDE представляет преимущественно французских же талантливых молодых исполнителей, чье живое выступление в студии без зрителей может состоять из одной или нескольких песен, иногда передача бывает полностью посвящена одному исполнителю, презентующему новый альбом. Musique Acoustic выходит в эфир раз в 1-2 недели. Ведущим передачи c 2006 года является ее создатель - популярный радио – и телеведущий - Sébastien Folin, получивший известность в 2005 году серией из 20 коротких программ для TF1 "Любовь в 20 лет".
Сегодня в программе Patricia Kaas исполнит несколько песен со своего последнего альбома Kaas Chante Piaf (2012), посвященного памяти Эдит Пиаф.
Треклист:
01. Non, je ne regrette rien
02. La belle histoire d'amour
03. La Foule
04. Milord
05. Je t'ai dans la peau-[url=tracker.php?f%5B%5D=431&f%5B%5D=2383&f%5B%5D=2089&f%5B%5D=1174&f%5B%5D=442&f%5B%5D=475&f%5B%5D=1775&f%5B%5D=2305&f%5B%5D=1782&f%5B%5D=1787&f%5B%5D=1789&f%5B%5D=1912&o=1&s=2&oop=0&df=1&da=1&ds=0&nm=Musique%20Acoustic%20TV5MONDE]Передачи Musique Acoustic[/url]-Источник: Собственная запись со спутника (канал TV5MONDE).
Качество: DVB
Формат файла: MPEG-PS
Видео кодек: MPEG2
Аудио кодек: MP2
Видео: MPEG Video 2, 720x576@1024x576 (16:9), 25 fps, ~3024 kbps avg, ~0.292 bit/pixel
Аудио: 48 kHz, MPEG Audio 2, 2 ch, ~192.00 kbps avg

MediaInfo

Полное имя : H:\My Torrents\[apreder]TV5MONDE_Musique_Acoustic\[apreder]TV5MONDE_Musique_Aqoustic(16.02.2013)DVB.mpgФормат файла : MPEG-PSРазмер файла : 628 МбайтПродолжительность : 26 м.Режим общего битрейта : ПеременныйОбщий поток : 3281 Кбит/сек
ВидеоИдентификатор : 224 (0xE0)Формат файла : MPEG VideoВерсия формата : Version 2Профиль формата : Main@MainПараметр BVOP формата : ДаПараметр матрицы формата : ВыборочнаяПараметр GOP формата : M=3, N=24Продолжительность : 26 м.Вид битрейта : ПеременныйБитрейт : 3024 Кбит/секШирина : 720 пикселейВысота : 576 пикселейСоотношение сторон : 16:9Частота кадров : 25,000 кадров/секСтандарт вещания : PALЦветовое пространство : YUVСубдискретизация насыщенности : 4:2:0Битовая глубина : 8 битТип развёртки : ПрогрессивнаяПорядок развёртки : Верхнее поле первоеМетод сжатия : С потерямиБит/(Пиксели*Кадры) : 0.292Размер потока : 579 Мбайт (92%)
АудиоИдентификатор : 192 (0xC0)Формат файла : MPEG AudioВерсия формата : Version 1Профиль формата : Layer 2Продолжительность : 26 м.Вид битрейта : ПостоянныйБитрейт : 192 Кбит/секКаналы : 2 каналаЧастота : 48,0 КГцМетод сжатия : С потерямиРазмер потока : 36,7 Мбайт (6%)

Скриншоты

Скриншоты анаморфированные

-621/603√


[torrentc.info]_t_4354608.torrent
Торрент: Зарегистрирован ·  [ 2017-12-14 11:42 ] ·  bf70b1f91a0929ddddcbca3ed6121b1fb08a942a

13 KB

Статус: проверено
Скачан: 0 раз
Размер: 628 MB
Оценка: 
(Голосов: 0)
Сказали спасибо: 0  Спасибо
Похожие темы
[Профиль]    [ЛС]
Показать сообщения:    
Ответить на тему

Текущее время: Сегодня 13:29

Часовой пояс: GMT + 7



Вы не можете начинать темы
Вы не можете отвечать на сообщения
Вы не можете редактировать свои сообщения
Вы не можете удалять свои сообщения
Вы не можете голосовать в опросах
Вы не можете прикреплять файлы к сообщениям
Вы можете скачивать файлы