Rose - Et puis juin - Musique Acoustic от 23.06.2013 - TV5MONDE (Филипп Сомме / Philippe Sommet) [2013, French Chanson, Variety, Folk, Live, DVB]

Ответить на тему
Статистика раздачи [Обновить пиров]
Размер:  689 MB   |    Зарегистрирован:  7 месяцев 5 дней   |    Скачан:  0 раз

Полного источника не было: Никогда

 
   
 
 
 
Автор Сообщение

torrentc.info

Создавать темы 14-Дек-2017 11:42

[Цитировать]

Rose - Et puis juin
Musique Acoustic от 23.06.2013 - TV5MONDE- Страна: Франция
Жанр: French Chanson, Variété, Folk, Live
Продолжительность: 00:26:34
Год выхода: 2013 г.Режиссер: Филипп Сомме / Philippe Sommet
Описание: Музыкальная передача Musique Acoustic канала французского телевидения TV5MONDE представляет преимущественно французских же талантливых молодых исполнителей, чье живое выступление в студии без зрителей может состоять из одной или нескольких песен, иногда передача бывает полностью посвящена одному исполнителю, презентующему новый альбом. Musique Acoustic выходит в эфир раз в 1-2 недели. Ведущим передачи c 2006 года является ее создатель - популярный радио – и телеведущий - Sébastien Folin, получивший известность в 2005 году серией из 20 коротких программ для TF1 "Любовь в 20 лет".
Сегодня в программе молодая французская певица и автор песен Rose представит свой третий альбом Et puis juin (2013). Keren Meloul взяла псевдоним в честь фильма Марка Райдела "The Rose" (1979), в основу которого была положена трагическая судьба рок-певицы Дженис Джоплин, ставшей жертвой одиночества, а также увлечения наркотиками и алкоголем. После блестящего окончания обучения и получения юридического образования будущая певица получила должность профессора и какое-то время преподавала в Merkaz Ohr Joseph в 19-ом округе Парижа. В ее песнях чувствуется абсолютная правда одинокой женщины и любящей матери, пережившей период жесткой депрессии, но не сломившейся и продолжающей радоваться жизни.
В песне Aux éclats je ris есть такие слова: "Иногда мое тело будто умирает, я кусаю губы и готова рвать на себе волосы от горя, но я не умираю, я встаю и громко смеюсь…"
Треклист:
01. Aux éclats je ris
02. Je me manque
03. Mais ça va
04. Et puis juin
05. Jamais Paris ne me laisse-[url=tracker.php?nm=Musique%20Acoustic%20TV5MONDE]Передачи Musique Acoustic[/url]-Источник: запись со спутника (канал TV5MONDE).
Качество: DVB
Формат файла: MPEG-PS [url=viewtopic.php?p=58098458#58098458](См. при проблемах с просмотром видео)[/url]
Видео кодек: MPEG2
Аудио кодек: MP2
Видео: MPEG Video 2, 720x576@1024x576 (16:9), 25 fps, ~3357 kbps avg, ~0.324 bit/pixel
Аудио: 48 kHz, MPEG Audio 2, 2 ch, ~192.00 kbps avg

MediaInfo

Полное имя : H:\My Torrents\[apreder]TV5MONDE_Musique_Acoustic\[apreder]TV5MONDE_Musique_Aqoustic(23.06.2013)DVB.mpgФормат файла : MPEG-PSРазмер файла : 689 МбайтПродолжительность : 26 м.Режим общего битрейта : ПеременныйОбщий поток : 3621 Кбит/сек
ВидеоИдентификатор : 224 (0xE0)Формат файла : MPEG VideoВерсия формата : Version 2Профиль формата : Main@MainПараметр BVOP формата : ДаПараметр матрицы формата : ВыборочнаяПараметр GOP формата : M=3, N=24Продолжительность : 26 м.Вид битрейта : ПеременныйБитрейт : 3357 Кбит/секШирина : 720 пикселейВысота : 576 пикселейСоотношение сторон : 16:9Частота кадров : 25,000 кадров/секСтандарт вещания : PALЦветовое пространство : YUVСубдискретизация насыщенности : 4:2:0Битовая глубина : 8 битМетод сжатия : С потерямиБит/(Пиксели*Кадры) : 0.324TimeCode_FirstFrame : 00:00:00:00TimeCode_Source : Group of pictures headerРазмер потока : 639 Мбайт (93%)
АудиоИдентификатор : 192 (0xC0)Формат файла : MPEG AudioВерсия формата : Version 1Профиль формата : Layer 2Продолжительность : 26 м.Вид битрейта : ПостоянныйБитрейт : 192 Кбит/секКаналы : 2 каналаЧастота : 48,0 КГцМетод сжатия : С потерямиРазмер потока : 36,6 Мбайт (5%)

Скриншоты

Скриншоты анаморфированные

-811/793√


[torrentc.info]_t_4473568.torrent
Торрент: Зарегистрирован ·  [ 2017-12-14 11:42 ] ·  bae0c8bff4a886a39731fa1d9ac9c2705ed23246

14 KB

Статус: проверено
Скачан: 0 раз
Размер: 689 MB
Оценка: 
(Голосов: 0)
Сказали спасибо: 0  Спасибо
Похожие темы
[Профиль]    [ЛС]
Показать сообщения:    
Ответить на тему

Текущее время: Сегодня 16:39

Часовой пояс: GMT + 7



Вы не можете начинать темы
Вы не можете отвечать на сообщения
Вы не можете редактировать свои сообщения
Вы не можете удалять свои сообщения
Вы не можете голосовать в опросах
Вы не можете прикреплять файлы к сообщениям
Вы можете скачивать файлы