(Bop, Cool, Piano Jazz) [CD] George Shearing & Brian Torff - Lullaby of Birdland: Blues Alley Jazz (1979)/On a Clear Day (1980) (2CD) - 2000, FLAC (tracks+.cue), lossless

Ответить на тему
Статистика раздачи [Обновить пиров]
Размер:  415 MB   |    Зарегистрирован:  1 год   |    Скачан:  0 раз

Полного источника не было: Никогда

 
   
 
 
 
Автор Сообщение

torrentc.info

Создавать темы 13-Дек-2017 21:54

[Цитировать]

George Shearing & Brian Torff - Lullaby of Birdland
Жанр: Bop, Cool, Piano Jazz
Носитель: CD
Страна-производитель диска (релиза): США
Год издания: 2000
Издатель (лейбл): Concord Records
Номер по каталогу: CCD2-4927-2
Аудиокодек: FLAC (*.flac)
Тип рипа: tracks+.cue
Битрейт аудио: lossless
Продолжительность: 1:33:20
Источник (релизер): catfish27
Наличие сканов в содержимом раздачи: нет

CD1 - Blues Alley Jazz (1979) {45:44}

01. One for the Woofer (Taylor) - 8:31
02. Autumn in New York (Duke) - 5:03
03. The Masquerade Is Over (Magidson-Wrubel) - 6:27
04. That's What She Says (Fest) - 4:00
05. Soon It's Gonna Rain (Jones-Schmidt) - 5:33
06. High and Inside (Torff) - 3:46
07. For Every Man There's a Woman (Arlen-Robin) - 3:53
08. This Couldn't Be the Real Thing (Mulligan-Torme) - 3:21
09. Up a Lazy River (Carmichael-Arodin) - 5:10
Состав:
George Shearing - piano
Brian Torff - bass
Recorded live at Blues Alley, Washington, D.C. in October 1979.

Лог создания рипа

X Lossless Decoder version 20170729 (150.3)
XLD extraction logfile from 2017-10-11 01:34:08 -0700
George Shearing & Brian Torff / Lullaby of Birdland (Disc 1)
Used drive : TSSTcorp BDDVDW SE-506BB (revision TS00)Media type : Pressed CD
Ripper mode : XLD Secure RipperDisable audio cache : OK for the drive with a cache less than 1375KiBMake use of C2 pointers : NORead offset correction : 6Max retry count : 100Gap status : Analyzed, Appended (except HTOA)
TOC of the extracted CD Track | Start | Length | Start sector | End sector --------------------------------------------------------- 1 | 00:00:00 | 08:31:05 | 0 | 38329 2 | 08:31:05 | 05:02:70 | 38330 | 61049 3 | 13:34:00 | 06:27:27 | 61050 | 90101 4 | 20:01:27 | 04:00:20 | 90102 | 108121 5 | 24:01:47 | 05:32:38 | 108122 | 133059 6 | 29:34:10 | 03:46:10 | 133060 | 150019 7 | 33:20:20 | 03:52:40 | 150020 | 167459 8 | 37:12:60 | 03:21:05 | 167460 | 182539 9 | 40:33:65 | 05:09:42 | 182540 | 205756
List of alternate offset correction values # | Absolute | Relative | Confidence ------------------------------------------ 1 | -24 | -30 | 2
AccurateRip Summary (DiscID: 00115739-007ad31f-5e0ab709) Track 01 : OK (v1, confidence 2/4) Track 02 : OK (v1, confidence 2/4) Track 03 : OK (v1, confidence 2/4) Track 04 : OK (v1, confidence 2/2) Track 05 : OK (v1, confidence 2/4) Track 06 : OK (v1, confidence 2/4) Track 07 : OK (v1, confidence 2/4) Track 08 : OK (v1, confidence 2/4) Track 09 : OK (v1, confidence 2/4) ->All tracks accurately ripped.
All Tracks Album gain : -2.62 dB Peak : 0.996613 Statistics Read error : 0 Jitter error (maybe fixed) : 1 Retry sector count : 814 Damaged sector count : 0
Track 01 Filename : /Volumes/Hollywood and Vine/Rips/George Shearing & Brian Torff - Lullaby of Birdland (Disc 1) (2000) [FLAC]/01 One for the Woofer.flac Pre-gap length : 00:02:00
Track gain : -2.85 dB Peak : 0.996613 CRC32 hash (test run) : 9F57B0B4 CRC32 hash : 9F57B0B4 CRC32 hash (skip zero) : BF94CB09 AccurateRip v1 signature : 8522BE7A AccurateRip v2 signature : C92AA8F2 ->Accurately ripped (v1, confidence 2/4) Statistics Read error : 0 Jitter error (maybe fixed) : 0 Retry sector count : 1 Damaged sector count : 0
Track 02 Filename : /Volumes/Hollywood and Vine/Rips/George Shearing & Brian Torff - Lullaby of Birdland (Disc 1) (2000) [FLAC]/02 Autumn in New York.flac
Track gain : -0.94 dB Peak : 0.764557 CRC32 hash (test run) : 97483BE6 CRC32 hash : 97483BE6 CRC32 hash (skip zero) : 31181077 AccurateRip v1 signature : 7DCEAA54 AccurateRip v2 signature : 5D1F3FAE ->Accurately ripped (v1, confidence 2/4) Statistics Read error : 0 Jitter error (maybe fixed) : 0 Retry sector count : 0 Damaged sector count : 0
Track 03 Filename : /Volumes/Hollywood and Vine/Rips/George Shearing & Brian Torff - Lullaby of Birdland (Disc 1) (2000) [FLAC]/03 The Masquerade Is Over.flac
Track gain : -2.30 dB Peak : 0.854156 CRC32 hash (test run) : B288DD3D CRC32 hash : B288DD3D CRC32 hash (skip zero) : A41B4F3B AccurateRip v1 signature : 60A41630 AccurateRip v2 signature : 0DD45786 ->Accurately ripped (v1, confidence 2/4) Statistics Read error : 0 Jitter error (maybe fixed) : 0 Retry sector count : 297 Damaged sector count : 0
Track 04 Filename : /Volumes/Hollywood and Vine/Rips/George Shearing & Brian Torff - Lullaby of Birdland (Disc 1) (2000) [FLAC]/04 That's What She Says.flac
Track gain : -3.25 dB Peak : 0.877502 CRC32 hash (test run) : 38CD2B1F CRC32 hash : 38CD2B1F CRC32 hash (skip zero) : F6467D56 AccurateRip v1 signature : 2F49F2AC AccurateRip v2 signature : 30F8AC9C ->Accurately ripped (v1, confidence 2/2) Statistics Read error : 0 Jitter error (maybe fixed) : 0 Retry sector count : 0 Damaged sector count : 0
Track 05 Filename : /Volumes/Hollywood and Vine/Rips/George Shearing & Brian Torff - Lullaby of Birdland (Disc 1) (2000) [FLAC]/05 Soon It's Gonna Rain.flac Pre-gap length : 00:02:20
Track gain : -2.71 dB Peak : 0.855927 CRC32 hash (test run) : D019CD77 CRC32 hash : D019CD77 CRC32 hash (skip zero) : D32B3EE3 AccurateRip v1 signature : EA177067 AccurateRip v2 signature : BF3BCCC2 ->Accurately ripped (v1, confidence 2/4) Statistics Read error : 0 Jitter error (maybe fixed) : 0 Retry sector count : 0 Damaged sector count : 0
Track 06 Filename : /Volumes/Hollywood and Vine/Rips/George Shearing & Brian Torff - Lullaby of Birdland (Disc 1) (2000) [FLAC]/06 High and Inside.flac
Track gain : -2.99 dB Peak : 0.895569 CRC32 hash (test run) : 1669A475 CRC32 hash : 1669A475 CRC32 hash (skip zero) : FEBE551B AccurateRip v1 signature : 08653B39 AccurateRip v2 signature : D2554C79 ->Accurately ripped (v1, confidence 2/4) Statistics Read error : 0 Jitter error (maybe fixed) : 0 Retry sector count : 0 Damaged sector count : 0
Track 07 Filename : /Volumes/Hollywood and Vine/Rips/George Shearing & Brian Torff - Lullaby of Birdland (Disc 1) (2000) [FLAC]/07 For Every Man There's a Woman.flac
Track gain : 0.97 dB Peak : 0.660980 CRC32 hash (test run) : 94AB6CCF CRC32 hash : 94AB6CCF CRC32 hash (skip zero) : E2C011ED AccurateRip v1 signature : D10C9B86 AccurateRip v2 signature : AE66DA17 ->Accurately ripped (v1, confidence 2/4) Statistics Read error : 0 Jitter error (maybe fixed) : 1 Retry sector count : 516 Damaged sector count : 0
Track 08 Filename : /Volumes/Hollywood and Vine/Rips/George Shearing & Brian Torff - Lullaby of Birdland (Disc 1) (2000) [FLAC]/08 This Couldn't Be the Real Thing.flac
Track gain : -0.79 dB Peak : 0.839600 CRC32 hash (test run) : AB753044 CRC32 hash : AB753044 CRC32 hash (skip zero) : 2B2BBF0A AccurateRip v1 signature : D2BF7493 AccurateRip v2 signature : 27B7C3FA ->Accurately ripped (v1, confidence 2/4) Statistics Read error : 0 Jitter error (maybe fixed) : 0 Retry sector count : 0 Damaged sector count : 0
Track 09 Filename : /Volumes/Hollywood and Vine/Rips/George Shearing & Brian Torff - Lullaby of Birdland (Disc 1) (2000) [FLAC]/09 Up a Lazy River.flac
Track gain : -3.48 dB Peak : 0.958801 CRC32 hash (test run) : 7A23473C CRC32 hash : 7A23473C CRC32 hash (skip zero) : 0FDC2225 AccurateRip v1 signature : 16E43215 AccurateRip v2 signature : 7735FB5E ->Accurately ripped (v1, confidence 2/4) Statistics Read error : 0 Jitter error (maybe fixed) : 0 Retry sector count : 0 Damaged sector count : 0
No errors occurred
End of status report
-----BEGIN XLD SIGNATURE-----iPBx1T9mYZq9eL9RUEgUCABEbZ6hdkX7d6kqJsyuCQigeV3CMQebTprMVbzijBN96QsV8P8F9GtbrKr5NuHdmEcEd5fGiihN9bKs_m8-----END XLD SIGNATURE-----

Содержание индексной карты (.CUE)

TITLE "Blues Alley Jazz"PERFORMER "George Shearing & Brian Torff"REM GENRE "Jazz"REM DATE "1979"REM DISCID 5E0AB709REM REPLAYGAIN_ALBUM_GAIN -2.62 dBREM REPLAYGAIN_ALBUM_PEAK 0.996613FILE "01 - One for the Woofer.flac" WAVE TRACK 01 AUDIO TITLE "One for the Woofer" REM REPLAYGAIN_TRACK_GAIN -2.85 dB REM REPLAYGAIN_TRACK_PEAK 0.996613 INDEX 01 00:00:00FILE "02 - Autumn in New York.flac" WAVE TRACK 02 AUDIO TITLE "Autumn in New York" REM REPLAYGAIN_TRACK_GAIN -0.94 dB REM REPLAYGAIN_TRACK_PEAK 0.764557 INDEX 01 00:00:00FILE "03 - The Masquerade Is Over.flac" WAVE TRACK 03 AUDIO TITLE "The Masquerade Is Over" REM REPLAYGAIN_TRACK_GAIN -2.30 dB REM REPLAYGAIN_TRACK_PEAK 0.854156 INDEX 01 00:00:00FILE "04 - That's What She Says.flac" WAVE TRACK 04 AUDIO TITLE "That's What She Says" REM REPLAYGAIN_TRACK_GAIN -3.25 dB REM REPLAYGAIN_TRACK_PEAK 0.877502 INDEX 01 00:00:00 TRACK 05 AUDIO TITLE "Soon It's Gonna Rain" REM REPLAYGAIN_TRACK_GAIN -2.71 dB REM REPLAYGAIN_TRACK_PEAK 0.855927 INDEX 00 03:58:00FILE "05 - Soon It's Gonna Rain.flac" WAVE INDEX 01 00:00:00FILE "06 - High and Inside.flac" WAVE TRACK 06 AUDIO TITLE "High and Inside" REM REPLAYGAIN_TRACK_GAIN -2.99 dB REM REPLAYGAIN_TRACK_PEAK 0.895569 INDEX 01 00:00:00FILE "07 - For Every Man There's a Woman.flac" WAVE TRACK 07 AUDIO TITLE "For Every Man There's a Woman" REM REPLAYGAIN_TRACK_GAIN 0.97 dB REM REPLAYGAIN_TRACK_PEAK 0.660980 INDEX 01 00:00:00FILE "08 - This Couldn't Be the Real Thing.flac" WAVE TRACK 08 AUDIO TITLE "This Couldn't Be the Real Thing" REM REPLAYGAIN_TRACK_GAIN -0.79 dB REM REPLAYGAIN_TRACK_PEAK 0.839600 INDEX 01 00:00:00FILE "09 - Up a Lazy River.flac" WAVE TRACK 09 AUDIO TITLE "Up a Lazy River" REM REPLAYGAIN_TRACK_GAIN -3.48 dB REM REPLAYGAIN_TRACK_PEAK 0.958801 INDEX 01 00:00:00

Отчет CUETools

[CUETools log; Date: 13.12.2017 0:35:17; Version: 2.1.5][CTDB TOCID: 8QclMqLAU0yFrNx5DGYsEppE09Q-] found.Track | CTDB Status 1 | (3/3) Accurately ripped 2 | (3/3) Accurately ripped 3 | (3/3) Accurately ripped 4 | (3/3) Accurately ripped 5 | (3/3) Accurately ripped 6 | (3/3) Accurately ripped 7 | (3/3) Accurately ripped 8 | (3/3) Accurately ripped 9 | (3/3) Accurately ripped[AccurateRip ID: 00115739-007ad31f-5e0ab709] found.Track [ CRC | V2 ] Status 01 [8522be7a|c92aa8f2] (2+0/4) Accurately ripped 02 [7dceaa54|5d1f3fae] (2+0/4) Accurately ripped 03 [60a41630|0dd45786] (2+0/4) Accurately ripped 04 [2f49f2ac|30f8ac9c] (2+0/2) Accurately ripped 05 [ea177067|bf3bccc2] (2+0/4) Accurately ripped 06 [08653b39|d2554c79] (2+0/4) Accurately ripped 07 [d10c9b86|ae66da17] (2+0/4) Accurately ripped 08 [d2bf7493|27b7c3fa] (2+0/4) Accurately ripped 09 [16e43215|7735fb5e] (2+0/4) Accurately rippedOffsetted by -30: 01 [bf147f56] (0/4) No match (V2 was not tested) 02 [96eab7be] (0/4) No match (V2 was not tested) 03 [e0e5148b] (0/4) No match (V2 was not tested) 04 [e100e318] (0/2) No match 05 [5b4be5d1] (0/4) No match (V2 was not tested) 06 [5196239d] (0/4) No match (V2 was not tested) 07 [e09681f4] (0/4) No match (V2 was not tested) 08 [45c3ae78] (0/4) No match (V2 was not tested) 09 [2816122f] (0/4) No match (V2 was not tested)
Track Peak [ CRC32 ] [W/O NULL] -- 99,6 [5301912C] [07E398BB] 01 99,6 [9F57B0B4] [BF94CB09] 02 76,4 [97483BE6] [31181077] 03 85,4 [B288DD3D] [A41B4F3B] 04 87,7 [38CD2B1F] [F6467D56] 05 85,5 [D019CD77] [D32B3EE3] 06 89,5 [1669A475] [FEBE551B] 07 66,1 [94AB6CCF] [E2C011ED] 08 83,9 [AB753044] [2B2BBF0A] 09 95,8 [7A23473C] [0FDC2225]

CD2 - On a Clear Day (1980) {47:38}

01. Spoken Introduction - 0:28
02. Love for Sale (Porter) - 10:06
03. On a Clear Day (You Can See Forever) (Lerner-Lane) - 6:56
04. Brasil '79 (Torff) - 5:22
05. Don't Explain (Herzog-Holiday) - 6:25
06. Happy Days Are Here Again (Ager-Yellen) - 2:57
07. Have You Met Miss Jones? (Hart-Rodgers) - 4:26
08. Blue Island Blues (Torff) - 5:14
09. Lullaby of Birdland (Shearing-Weiss) - 5:44
Состав:
George Shearing - piano, vocals (#7)
Brian Torff - bass
Recorded live at the Concord Pavilion, Concord, CA in August 1980.

Лог создания рипа

X Lossless Decoder version 20170729 (150.3)
XLD extraction logfile from 2017-10-11 07:19:38 -0700
George Shearing & Brian Torff / Lullaby of Birdland (Disc 2)
Used drive : TSSTcorp BDDVDW SE-506BB (revision TS00)Media type : Pressed CD
Ripper mode : XLD Secure RipperDisable audio cache : OK for the drive with a cache less than 1375KiBMake use of C2 pointers : NORead offset correction : 6Max retry count : 100Gap status : Analyzed, Appended (except HTOA)
TOC of the extracted CD Track | Start | Length | Start sector | End sector --------------------------------------------------------- 1 | 00:00:00 | 00:27:42 | 0 | 2066 2 | 00:27:42 | 10:05:53 | 2067 | 47494 3 | 10:33:20 | 06:55:67 | 47495 | 78686 4 | 17:29:12 | 05:21:60 | 78687 | 102821 5 | 22:50:72 | 06:24:70 | 102822 | 131691 6 | 29:15:67 | 02:56:70 | 131692 | 144961 7 | 32:12:62 | 04:25:40 | 144962 | 164876 8 | 36:38:27 | 05:14:35 | 164877 | 188461 9 | 41:52:62 | 05:43:43 | 188462 | 214229
List of alternate offset correction values # | Absolute | Relative | Confidence ------------------------------------------ 1 | -24 | -30 | 2
AccurateRip Summary (DiscID: 0010685e-00791f2e-640b2809) Track 01 : OK (v1, confidence 2/4) Track 02 : OK (v1, confidence 2/4) Track 03 : OK (v1, confidence 2/4) Track 04 : OK (v1, confidence 2/4) Track 05 : OK (v1, confidence 2/4) Track 06 : OK (v1, confidence 2/4) Track 07 : OK (v1, confidence 2/4) Track 08 : OK (v1, confidence 2/4) Track 09 : OK (v1, confidence 2/4) ->All tracks accurately ripped.
All Tracks Album gain : -1.29 dB Peak : 0.995758 Statistics Read error : 0 Jitter error (maybe fixed) : 2 Retry sector count : 0 Damaged sector count : 0
Track 01 Filename : /Volumes/Hollywood and Vine/Rips/George Shearing & Brian Torff - Lullaby of Birdland (Disc 2) (2000) [FLAC]/01 Spoken Introduction.flac Pre-gap length : 00:02:00
Track gain : 6.19 dB Peak : 0.615356 CRC32 hash (test run) : 4FD707C1 CRC32 hash : 4FD707C1 CRC32 hash (skip zero) : B9AEF6E7 AccurateRip v1 signature : 279F5795 AccurateRip v2 signature : 4386FA76 ->Accurately ripped (v1, confidence 2/4) Statistics Read error : 0 Jitter error (maybe fixed) : 0 Retry sector count : 0 Damaged sector count : 0
Track 02 Filename : /Volumes/Hollywood and Vine/Rips/George Shearing & Brian Torff - Lullaby of Birdland (Disc 2) (2000) [FLAC]/02 Love for Sale.flac
Track gain : -1.73 dB Peak : 0.935181 CRC32 hash (test run) : 22FE6C46 CRC32 hash : 22FE6C46 CRC32 hash (skip zero) : E8709508 AccurateRip v1 signature : 147D791A AccurateRip v2 signature : B0EAD4FD ->Accurately ripped (v1, confidence 2/4) Statistics Read error : 0 Jitter error (maybe fixed) : 0 Retry sector count : 0 Damaged sector count : 0
Track 03 Filename : /Volumes/Hollywood and Vine/Rips/George Shearing & Brian Torff - Lullaby of Birdland (Disc 2) (2000) [FLAC]/03 On a Clear Day (You Can See Forever).flac
Track gain : 1.04 dB Peak : 0.881805 CRC32 hash (test run) : F8504BCE CRC32 hash : F8504BCE CRC32 hash (skip zero) : 1AF9342A AccurateRip v1 signature : 7A57F57A AccurateRip v2 signature : 0A529EE8 ->Accurately ripped (v1, confidence 2/4) Statistics Read error : 0 Jitter error (maybe fixed) : 0 Retry sector count : 0 Damaged sector count : 0
Track 04 Filename : /Volumes/Hollywood and Vine/Rips/George Shearing & Brian Torff - Lullaby of Birdland (Disc 2) (2000) [FLAC]/04 Brasil '79.flac
Track gain : -1.63 dB Peak : 0.995758 CRC32 hash (test run) : DF2907B2 CRC32 hash : DF2907B2 CRC32 hash (skip zero) : 3F1E5788 AccurateRip v1 signature : 14D91C9C AccurateRip v2 signature : 409B0BA9 ->Accurately ripped (v1, confidence 2/4) Statistics Read error : 0 Jitter error (maybe fixed) : 0 Retry sector count : 0 Damaged sector count : 0
Track 05 Filename : /Volumes/Hollywood and Vine/Rips/George Shearing & Brian Torff - Lullaby of Birdland (Disc 2) (2000) [FLAC]/05 Don't Explain.flac
Track gain : 1.23 dB Peak : 0.835815 CRC32 hash (test run) : 841DA277 CRC32 hash : 841DA277 CRC32 hash (skip zero) : 729CC96E AccurateRip v1 signature : 25FD4B6D AccurateRip v2 signature : BEB7BB5D ->Accurately ripped (v1, confidence 2/4) Statistics Read error : 0 Jitter error (maybe fixed) : 0 Retry sector count : 0 Damaged sector count : 0
Track 06 Filename : /Volumes/Hollywood and Vine/Rips/George Shearing & Brian Torff - Lullaby of Birdland (Disc 2) (2000) [FLAC]/06 Happy Days Are Here Again.flac
Track gain : 3.48 dB Peak : 0.649261 CRC32 hash (test run) : D71EC63E CRC32 hash : D71EC63E CRC32 hash (skip zero) : 7955ED85 AccurateRip v1 signature : FDD7BDEF AccurateRip v2 signature : DF9A7FA9 ->Accurately ripped (v1, confidence 2/4) Statistics Read error : 0 Jitter error (maybe fixed) : 0 Retry sector count : 0 Damaged sector count : 0
Track 07 Filename : /Volumes/Hollywood and Vine/Rips/George Shearing & Brian Torff - Lullaby of Birdland (Disc 2) (2000) [FLAC]/07 Have You Met Miss Jones_.flac
Track gain : 0.87 dB Peak : 0.809906 CRC32 hash (test run) : 8F90A981 CRC32 hash : 8F90A981 CRC32 hash (skip zero) : 1620ABA5 AccurateRip v1 signature : 5FAC0062 AccurateRip v2 signature : 6B5C88BE ->Accurately ripped (v1, confidence 2/4) Statistics Read error : 0 Jitter error (maybe fixed) : 1 Retry sector count : 0 Damaged sector count : 0
Track 08 Filename : /Volumes/Hollywood and Vine/Rips/George Shearing & Brian Torff - Lullaby of Birdland (Disc 2) (2000) [FLAC]/08 Blue Island Blues.flac
Track gain : -1.16 dB Peak : 0.993805 CRC32 hash (test run) : 33E76B53 CRC32 hash : 33E76B53 CRC32 hash (skip zero) : C7C28E10 AccurateRip v1 signature : 17A75807 AccurateRip v2 signature : 6E8CBA08 ->Accurately ripped (v1, confidence 2/4) Statistics Read error : 0 Jitter error (maybe fixed) : 1 Retry sector count : 0 Damaged sector count : 0
Track 09 Filename : /Volumes/Hollywood and Vine/Rips/George Shearing & Brian Torff - Lullaby of Birdland (Disc 2) (2000) [FLAC]/09 Lullaby of Birdland.flac
Track gain : -2.94 dB Peak : 0.936096 CRC32 hash (test run) : E7C894DF CRC32 hash : E7C894DF CRC32 hash (skip zero) : AE5C448C AccurateRip v1 signature : 567112C4 AccurateRip v2 signature : 03C49424 ->Accurately ripped (v1, confidence 2/4) Statistics Read error : 0 Jitter error (maybe fixed) : 0 Retry sector count : 0 Damaged sector count : 0
No errors occurred
End of status report
-----BEGIN XLD SIGNATURE-----PDJHxE7jc21pok7kwAbq2.5R4vTRjhg1dEzFPLj5bF486k9joTXjAiQWVgWIBlyZXsYLaHvZt9bU4GazJry6zg8..Rbqm7Umcz4Nqam-----END XLD SIGNATURE-----

Содержание индексной карты (.CUE)

TITLE "On a Clear Day"PERFORMER "George Shearing & Brian Torff"REM GENRE "Jazz"REM DATE "1980"REM DISCID 640B2809REM REPLAYGAIN_ALBUM_GAIN -1.29 dBREM REPLAYGAIN_ALBUM_PEAK 0.995758FILE "01 - Spoken Introduction.flac" WAVE TRACK 01 AUDIO TITLE "Spoken Introduction" REM REPLAYGAIN_TRACK_GAIN 6.19 dB REM REPLAYGAIN_TRACK_PEAK 0.615356 INDEX 01 00:00:00FILE "02 - Love for Sale.flac" WAVE TRACK 02 AUDIO TITLE "Love for Sale" REM REPLAYGAIN_TRACK_GAIN -1.73 dB REM REPLAYGAIN_TRACK_PEAK 0.935181 INDEX 01 00:00:00FILE "03 - On a Clear Day (You Can See Forever).flac" WAVE TRACK 03 AUDIO TITLE "On a Clear Day (You Can See Forever)" REM REPLAYGAIN_TRACK_GAIN 1.04 dB REM REPLAYGAIN_TRACK_PEAK 0.881805 INDEX 01 00:00:00FILE "04 - Brasil '79.flac" WAVE TRACK 04 AUDIO TITLE "Brasil '79" REM REPLAYGAIN_TRACK_GAIN -1.63 dB REM REPLAYGAIN_TRACK_PEAK 0.995758 INDEX 01 00:00:00FILE "05 - Don't Explain.flac" WAVE TRACK 05 AUDIO TITLE "Don't Explain" REM REPLAYGAIN_TRACK_GAIN 1.23 dB REM REPLAYGAIN_TRACK_PEAK 0.835815 INDEX 01 00:00:00FILE "06 - Happy Days Are Here Again.flac" WAVE TRACK 06 AUDIO TITLE "Happy Days Are Here Again" REM REPLAYGAIN_TRACK_GAIN 3.48 dB REM REPLAYGAIN_TRACK_PEAK 0.649261 INDEX 01 00:00:00FILE "07 - Have You Met Miss Jones.flac" WAVE TRACK 07 AUDIO TITLE "Have You Met Miss Jones?" REM REPLAYGAIN_TRACK_GAIN 0.87 dB REM REPLAYGAIN_TRACK_PEAK 0.809906 INDEX 01 00:00:00FILE "08 - Blue Island Blues.flac" WAVE TRACK 08 AUDIO TITLE "Blue Island Blues" REM REPLAYGAIN_TRACK_GAIN -1.16 dB REM REPLAYGAIN_TRACK_PEAK 0.993805 INDEX 01 00:00:00FILE "09 - Lullaby of Birdland.flac" WAVE TRACK 09 AUDIO TITLE "Lullaby of Birdland" REM REPLAYGAIN_TRACK_GAIN -2.94 dB REM REPLAYGAIN_TRACK_PEAK 0.936096 INDEX 01 00:00:00

Отчет CUETools

[CUETools log; Date: 13.12.2017 0:35:31; Version: 2.1.5][CTDB TOCID: __yH9U0bZJpWD.W1UJnflVtIOG8-] found.Track | CTDB Status 1 | (4/4) Accurately ripped 2 | (4/4) Accurately ripped 3 | (4/4) Accurately ripped 4 | (4/4) Accurately ripped 5 | (4/4) Accurately ripped 6 | (4/4) Accurately ripped 7 | (4/4) Accurately ripped 8 | (4/4) Accurately ripped 9 | (4/4) Accurately ripped[AccurateRip ID: 0010685e-00791f2e-640b2809] found.Track [ CRC | V2 ] Status 01 [279f5795|4386fa76] (2+0/4) Accurately ripped 02 [147d791a|b0ead4fd] (2+0/4) Accurately ripped 03 [7a57f57a|0a529ee8] (2+0/4) Accurately ripped 04 [14d91c9c|409b0ba9] (2+0/4) Accurately ripped 05 [25fd4b6d|beb7bb5d] (2+0/4) Accurately ripped 06 [fdd7bdef|df9a7fa9] (2+0/4) Accurately ripped 07 [5fac0062|6b5c88be] (2+0/4) Accurately ripped 08 [17a75807|6e8cba08] (2+0/4) Accurately ripped 09 [567112c4|03c49424] (2+0/4) Accurately rippedOffsetted by -30: 01 [0a737f14] (0/4) No match (V2 was not tested) 02 [d18ccd34] (0/4) No match (V2 was not tested) 03 [9afe1373] (0/4) No match (V2 was not tested) 04 [d404467d] (0/4) No match (V2 was not tested) 05 [27b592d1] (0/4) No match (V2 was not tested) 06 [3fcb2f17] (0/4) No match (V2 was not tested) 07 [1b206d2b] (0/4) No match (V2 was not tested) 08 [163d1030] (0/4) No match (V2 was not tested) 09 [2ce713f6] (0/4) No match (V2 was not tested)
Track Peak [ CRC32 ] [W/O NULL] -- 99,5 [30BA3777] [43C12228] 01 61,5 [4FD707C1] [B9AEF6E7] 02 93,5 [22FE6C46] [E8709508] 03 88,1 [F8504BCE] [1AF9342A] 04 99,5 [DF2907B2] [3F1E5788] 05 83,5 [841DA277] [729CC96E] 06 64,9 [D71EC63E] [7955ED85] 07 80,9 [8F90A981] [1620ABA5] 08 99,3 [33E76B53] [C7C28E10] 09 93,6 [E7C894DF] [AE5C448C]

AllMusic Review by Ken Dryden

George Shearing and bassist Brian Torff have perfect chemistry as a jazz duo; Lullaby of Birdland combines two of their live dates, Blues Alley Jazz and On a Clear Day, into this budget-priced two-CD reissue. The two musicians play superbly in unison, but each also reacts quickly to anything played by the other. Their series of exchanges on Billy Taylor's delightful "One for the Woofer" amuses the audience, while the wild Latin treatment of "Up a Lazy River" is every bit as enjoyable. Torff, who strangely didn't seem to record much at all during the two decades following these 1979 and 1980 concerts, gets a chance to show his chops in his original compositions "High and Inside," "Blue Island Blues," and "Brasil '79" (the latter piece is absolutely amazing). Shearing's love for bad puns is apparent in his deliberately misspoken announcement of the title to "Love for Sale" and his spoken introduction to "On a Clear Day" is hilarious; of course, the performances of these two pieces are noteworthy, too. The pianist is heard as a soloist on "For Every Man There's a Woman" and in a reprisal of his bittersweet arrangement of "Happy Days Are Here Again," which was recorded in a mid-'70s studio date for BASF (Solo); Shearing also adds his warm vocals on "The Real Thing" and "Have You Met Miss Jones?," and wraps the second disc by playing his meal ticket of many decades, "Lullaby of Birdland." Very highly recommended.


[torrentc.info]_t_5492739.torrent
Торрент: Зарегистрирован ·  [ 2017-12-13 21:54 ] ·  65cd98f67bfa9ff572cb328d1f9c78d1d0cf18d0

19 KB

Статус: проверено
Скачан: 0 раз
Размер: 415 MB
Оценка: 
(Голосов: 0)
Сказали спасибо: 0  Спасибо
Похожие темы
[Профиль]    [ЛС]
Показать сообщения:    
Ответить на тему

Текущее время: Сегодня 19:53

Часовой пояс: GMT + 7



Вы не можете начинать темы
Вы не можете отвечать на сообщения
Вы не можете редактировать свои сообщения
Вы не можете удалять свои сообщения
Вы не можете голосовать в опросах
Вы не можете прикреплять файлы к сообщениям
Вы можете скачивать файлы