(Grind) [CD-R] VA - A Tribute To Boneyard, 2006, FLAC (image+.cue), lossless

Ответить на тему
Статистика раздачи [Обновить пиров]
Размер:  546 MB   |    Зарегистрирован:  1 год 3 месяца   |    Скачан:  0 раз

Полного источника не было: Никогда

 
   
 
 
 
Автор Сообщение

torrentc.info

Создавать темы 16-Фев-2017 09:33

[Цитировать]

VA / A Tribute To Boneyard
Жанр: Grind
Носитель: CDR
Страна-производитель диска (релиза): Czech Republic
Год издания: 2006
Издатель (лейбл): Ganay Design Records
Номер по каталогу: GDR001
Аудиокодек: FLAC (*.flac)
Тип рипа: image+.cue
Битрейт аудио: lossless
Продолжительность: 01:19:02
Источник (релизер): CD
Наличие сканов в содержимом раздачи: да

Треклист:

1 Denak - Boneyard
2 Carnavage - Boneyard
3 Catasexual Urge Motivation - Boneyard
4 Depressive Reality - Boneyard
5 Catapuration - Boneyard
6 C.A.R.N.E. - Boneyard
7 Flying Brains - Boneyard
8 Masochist - Boneyard
9 Corpse Carving - Boneyard
10 Putrefied Genitalia - Boneyard
11 Gruesome Malady - Boneyard
12 Umbrella - Boneyard
13 Cruent - Boneyard
14 Rompeprop - Boneyard
15 Venereal Disease - Boneyard
16 Scared - Boneyard
17 Murder Corporation - Boneyard
18 Katalepsy - Boneyard
19 Plasma - Boneyard
20 Škoda 120 - Boneyard
21 Necrocannibal - Boneyard
22 Kundátor - Boneyard
23 Pustulated - Boneyard
24 Deformed - Boneyard
25 Pikodeath - Boneyard
26 Mixomatosis - Boneyard
27 Abortion Boneyard
28 Bloody Diarrhoea - Boneyard
29 Liquid Pus - Boneyard
30 Feculent Goretomb - Boneyard
31 Pozilga - Boneyard
32 Mrázek - Boneyard
33 Morbidium - Boneyard

Лог создания рипа

Exact Audio Copy V1.0 beta 6 from 9. April 2015
EAC extraction logfile from 11. November 2015, 23:46
VA / A Tribute To Boneyard
Used drive : hp DVDRW SU208FB Adapter: 1 ID: 0
Read mode : Secure
Utilize accurate stream : Yes
Defeat audio cache : Yes
Make use of C2 pointers : No
Read offset correction : 6
Overread into Lead-In and Lead-Out : No
Fill up missing offset samples with silence : Yes
Delete leading and trailing silent blocks : No
Null samples used in CRC calculations : Yes
Used interface : Native Win32 interface for Win NT & 2000
Used output format : Internal WAV Routines
Sample format : 44.100 Hz; 16 Bit; Stereo
TOC of the extracted CD
Track | Start | Length | Start sector | End sector
---------------------------------------------------------
1 | 0:00.00 | 2:44.50 | 0 | 12349
2 | 2:44.50 | 2:07.62 | 12350 | 21936
3 | 4:52.37 | 2:29.11 | 21937 | 33122
4 | 7:21.48 | 2:59.71 | 33123 | 46618
5 | 10:21.44 | 1:16.36 | 46619 | 52354
6 | 11:38.05 | 3:30.49 | 52355 | 68153
7 | 15:08.54 | 3:07.08 | 68154 | 82186
8 | 18:15.62 | 1:51.45 | 82187 | 90556
9 | 20:07.32 | 2:54.27 | 90557 | 103633
10 | 23:01.59 | 3:19.64 | 103634 | 118622
11 | 26:21.48 | 2:32.07 | 118623 | 130029
12 | 28:53.55 | 1:48.22 | 130030 | 138151
13 | 30:42.02 | 2:44.02 | 138152 | 150453
14 | 33:26.04 | 2:25.16 | 150454 | 161344
15 | 35:51.20 | 2:44.23 | 161345 | 173667
16 | 38:35.43 | 2:35.44 | 173668 | 185336
17 | 41:11.12 | 2:39.61 | 185337 | 197322
18 | 43:50.73 | 1:32.70 | 197323 | 204292
19 | 45:23.68 | 3:06.66 | 204293 | 218308
20 | 48:30.59 | 0:57.29 | 218309 | 222612
21 | 49:28.13 | 2:40.41 | 222613 | 234653
22 | 52:08.54 | 1:49.24 | 234654 | 242852
23 | 53:58.03 | 2:40.73 | 242853 | 254925
24 | 56:39.01 | 2:43.04 | 254926 | 267154
25 | 59:22.05 | 2:31.18 | 267155 | 278497
26 | 61:53.23 | 2:45.60 | 278498 | 290932
27 | 64:39.08 | 2:27.33 | 290933 | 301990
28 | 67:06.41 | 2:31.44 | 301991 | 313359
29 | 69:38.10 | 1:44.00 | 313360 | 321159
30 | 71:22.10 | 2:13.10 | 321160 | 331144
31 | 73:35.20 | 1:33.33 | 331145 | 338152
32 | 75:08.53 | 2:10.60 | 338153 | 347962
33 | 77:19.38 | 1:42.14 | 347963 | 355626
Range status and errors
Selected range
Filename C:\VA - A Tribute To Boneyard.wav
Peak level 100.0 %
Extraction speed 4.1 X
Range quality 99.9 %
Test CRC 5AE1E314
Copy CRC 7ADAB5B1
Copy OK
No errors occurred
AccurateRip summary
Track 1 not present in database
Track 2 not present in database
Track 3 not present in database
Track 4 not present in database
Track 5 not present in database
Track 6 not present in database
Track 7 not present in database
Track 8 not present in database
Track 9 not present in database
Track 10 not present in database
Track 11 not present in database
Track 12 not present in database
Track 13 not present in database
Track 14 not present in database
Track 15 not present in database
Track 16 not present in database
Track 17 not present in database
Track 18 not present in database
Track 19 not present in database
Track 20 not present in database
Track 21 not present in database
Track 22 not present in database
Track 23 not present in database
Track 24 not present in database
Track 25 not present in database
Track 26 not present in database
Track 27 not present in database
Track 28 not present in database
Track 29 not present in database
Track 30 not present in database
Track 31 not present in database
Track 32 not present in database
Track 33 not present in database
None of the tracks are present in the AccurateRip database
End of status report
==== Log checksum 47C80FA1239DB75181444D4BC26F529C61DAB1CBB943B9EC464491037AC844A5 ====

Содержание индексной карты (.CUE)

REM GENRE Grind
REM DATE 2006
REM DISCID B7128521
REM COMMENT "ExactAudioCopy v1.0b6"
PERFORMER "VA"
TITLE "A Tribute To Boneyard"
FILE "VA - A Tribute To Boneyard.flac" WAVE
TRACK 01 AUDIO
TITLE "Boneyard"
PERFORMER "Denak"
FLAGS DCP
INDEX 01 00:00:00
TRACK 02 AUDIO
TITLE "Boneyard"
PERFORMER "Carnavage"
FLAGS DCP
INDEX 01 02:44:50
TRACK 03 AUDIO
TITLE "Boneyard"
PERFORMER "Catasexual Urge Motivation"
FLAGS DCP
INDEX 01 04:52:37
TRACK 04 AUDIO
TITLE "Boneyard"
PERFORMER "Depressive Reality"
FLAGS DCP
INDEX 01 07:21:48
TRACK 05 AUDIO
TITLE "Boneyard"
PERFORMER "Catapuration"
FLAGS DCP
INDEX 01 10:21:44
TRACK 06 AUDIO
TITLE "Boneyard"
PERFORMER "C.A.R.N.E."
FLAGS DCP
INDEX 01 11:38:05
TRACK 07 AUDIO
TITLE "Boneyard"
PERFORMER "Flying Brains"
FLAGS DCP
INDEX 01 15:08:54
TRACK 08 AUDIO
TITLE "Boneyard"
PERFORMER "Masochist"
FLAGS DCP
INDEX 01 18:15:62
TRACK 09 AUDIO
TITLE "Boneyard"
PERFORMER "Corpse Carving"
FLAGS DCP
INDEX 01 20:07:32
TRACK 10 AUDIO
TITLE "Boneyard"
PERFORMER "Putrefied Genitalia"
FLAGS DCP
INDEX 01 23:01:59
TRACK 11 AUDIO
TITLE "Boneyard"
PERFORMER "Gruesome Malady"
FLAGS DCP
INDEX 01 26:21:48
TRACK 12 AUDIO
TITLE "Boneyard"
PERFORMER "Umbrella"
FLAGS DCP
INDEX 01 28:53:55
TRACK 13 AUDIO
TITLE "Boneyard"
PERFORMER "Cruent"
FLAGS DCP
INDEX 01 30:42:02
TRACK 14 AUDIO
TITLE "Boneyard"
PERFORMER "Rompeprop"
FLAGS DCP
INDEX 01 33:26:04
TRACK 15 AUDIO
TITLE "Boneyard"
PERFORMER "Venereal Disease"
FLAGS DCP
INDEX 01 35:51:20
TRACK 16 AUDIO
TITLE "Boneyard"
PERFORMER "Scared"
FLAGS DCP
INDEX 01 38:35:43
TRACK 17 AUDIO
TITLE "Boneyard"
PERFORMER "Murder Corporation"
FLAGS DCP
INDEX 01 41:11:12
TRACK 18 AUDIO
TITLE "Boneyard"
PERFORMER "Katalepsy"
FLAGS DCP
INDEX 01 43:50:73
TRACK 19 AUDIO
TITLE "Boneyard"
PERFORMER "Plasma"
FLAGS DCP
INDEX 01 45:23:68
TRACK 20 AUDIO
TITLE "Boneyard"
PERFORMER "Skoda 120"
FLAGS DCP
INDEX 01 48:30:59
TRACK 21 AUDIO
TITLE "Boneyard"
PERFORMER "Necrocannibal"
FLAGS DCP
INDEX 01 49:28:13
TRACK 22 AUDIO
TITLE "Boneyard"
PERFORMER "Kundator"
FLAGS DCP
INDEX 01 52:08:54
TRACK 23 AUDIO
TITLE "Boneyard"
PERFORMER "Pustulated"
FLAGS DCP
INDEX 01 53:58:03
TRACK 24 AUDIO
TITLE "Boneyard"
PERFORMER "Deformed"
FLAGS DCP
INDEX 01 56:39:01
TRACK 25 AUDIO
TITLE "Boneyard"
PERFORMER "Pikodeath"
FLAGS DCP
INDEX 01 59:22:05
TRACK 26 AUDIO
TITLE "Boneyard"
PERFORMER "Mixomatosis"
FLAGS DCP
INDEX 01 61:53:23
TRACK 27 AUDIO
TITLE "Boneyard"
PERFORMER "Abortion"
FLAGS DCP
INDEX 01 64:39:08
TRACK 28 AUDIO
TITLE "Boneyard"
PERFORMER "Bloody Diarrhoea"
FLAGS DCP
INDEX 01 67:06:41
TRACK 29 AUDIO
TITLE "Boneyard"
PERFORMER "Liquid Pus"
FLAGS DCP
INDEX 01 69:38:10
TRACK 30 AUDIO
TITLE "Boneyard"
PERFORMER "Feculent Goretomb"
FLAGS DCP
INDEX 01 71:22:10
TRACK 31 AUDIO
TITLE "Boneyard"
PERFORMER "Pozilga"
FLAGS DCP
INDEX 01 73:35:20
TRACK 32 AUDIO
TITLE "Boneyard"
PERFORMER "Mrazek"
FLAGS DCP
INDEX 01 75:08:53
TRACK 33 AUDIO
TITLE "Boneyard"
PERFORMER "Morbidium"
FLAGS DCP
INDEX 01 77:19:38


[torrentc.info]_torrent-5116939.torrent
Торрент: Зарегистрирован ·  [ 2017-02-16 09:12 ] ·  ed4f9a49894f46c08ffba9e1ba58e05fb81c9a52

12 KB

Статус: проверено
Скачан: 0 раз
Размер: 546 MB
Оценка: 
(Голосов: 0)
Сказали спасибо: 0  Спасибо
Похожие темы
[Профиль]    [ЛС]
Показать сообщения:    
Ответить на тему

Текущее время: Сегодня 21:08

Часовой пояс: GMT + 7



Вы не можете начинать темы
Вы не можете отвечать на сообщения
Вы не можете редактировать свои сообщения
Вы не можете удалять свои сообщения
Вы не можете голосовать в опросах
Вы не можете прикреплять файлы к сообщениям
Вы можете скачивать файлы