(Heavy Metal/Power Metal) [WEB] VA - VA - Ulterium Label Sampler 2015 - 2015, FLAC (tracks), lossless

Ответить на тему
Статистика раздачи [Обновить пиров]
Размер:  398 MB   |    Зарегистрирован:  1 год 8 месяцев   |    Скачан:  0 раз

Полного источника не было: Никогда

 
   
 
 
 
Автор Сообщение

torrentc.info

Создавать темы 16-Фев-2017 09:32

[Цитировать]

VA / Ulterium Label Sampler 2015
Жанр: Heavy Metal/Power Metal
Носитель: WEB
Год издания: 2015
Издатель (лейбл): Ulterium Records
Аудиокодек: FLAC (*.flac)
Тип рипа: tracks
Битрейт аудио: lossless
Продолжительность: 00:53:08
Источник (релизер): bandcamp (https://ulteriumrecords.bandcamp.com/album/ulterium-label-sampler-2015)
Наличие сканов в содержимом раздачи: нет
Треклист:
01-Project Aegis - Collide & Spark
02-Harmony - Inhale
03-Signum Regis - Lost And Found
04-Waken Eyes - Back To Life
05-Diviner - Kingdom Come
06-Within Silence - Road To The Paradise
07-Millennial Reign - Men Stand Alone
08-Black Fate - Lines In The Sand
09-Signum Regis - My Guide In The Night
10-Harmony - Feed My Hunger
Остальные раздачи этого сборника:
В MP3 - [url=viewtopic.php?t=5122383]http://Torrentc.org/forum/viewtopic.php?t=5122383[/url]
В AAC (M4A) - [url=viewtopic.php?t=5122391]http://Torrentc.org/forum/viewtopic.php?t=5122391[/url]

Лог проверки качества

-----------------------
DON'T MODIFY THIS FILE
-----------------------
PERFORMER: auCDtect Task Manager, ver. 1.6.0 RC1 build 1.6.0.1Copyright (c) 2008-2010 y-soft. All rights reservedhttp://y-soft.org
ANALYZER: auCDtect: CD records authenticity detector, version 0.8.2Copyright (c) 2004 Oleg Berngardt. All rights reserved.Copyright (c) 2004 Alexander Djourik. All rights reserved.
FILE: Ulterium Records - Ulterium Label Sampler 2015 - 02 Harmony - Inhale.flac Size: 34060367 Hash: 4AA7406A8D84B9B4A38376F0B1F31AEC Accuracy: -m0 Conclusion: CDDA 100% Signature: E4F737339121E9224E9DBC296F318B220715594A

Скриншот спектра частот

Доп. информация:

Dynamic Range

foobar2000 1.3.9 / Dynamic Range Meter 1.1.1
log date: 2015-11-23 22:14:36
--------------------------------------------------------------------------------
Analyzed: Ulterium Records / Ulterium Label Sampler 2015
--------------------------------------------------------------------------------
DR Peak RMS Duration Track
--------------------------------------------------------------------------------
DR6 -0.20 dB -6.99 dB 6:48 01-Project Aegis - Collide & Spark
DR5 -1.35 dB -7.82 dB 4:16 02-Harmony - Inhale
DR6 -0.81 dB -7.46 dB 3:34 03-Signum Regis - Lost And Found
DR5 -1.01 dB -7.94 dB 5:56 04-Waken Eyes - Back To Life
DR7 -0.20 dB -7.65 dB 4:40 05-Diviner - Kingdom Come
DR6 -0.50 dB -7.82 dB 7:51 06-Within Silence - Road To The Paradise
DR5 -1.30 dB -7.30 dB 5:23 07-Millennial Reign - Men Stand Alone
DR6 -0.30 dB -7.47 dB 5:02 08-Black Fate - Lines In The Sand
DR6 -0.80 dB -7.65 dB 4:45 09-Signum Regis - My Guide In The Night
DR5 -1.36 dB -8.18 dB 4:54 10-Harmony - Feed My Hunger
--------------------------------------------------------------------------------
Number of tracks: 10
Official DR value: DR6
Samplerate: 44100 Hz
Channels: 2
Bits per sample: 16
Bitrate: 1049 kbps
Codec: FLAC
================================================================================


[torrentc.info]_torrent-5122010.torrent
Торрент: Зарегистрирован ·  [ 2017-02-16 09:12 ] ·  338a8a918f0a759b8f357730125393b446503127

17 KB

Статус: проверено
Скачан: 0 раз
Размер: 398 MB
Оценка: 
(Голосов: 0)
Сказали спасибо: 0  Спасибо
Похожие темы
[Профиль]    [ЛС]
Показать сообщения:    
Ответить на тему

Текущее время: Сегодня 17:51

Часовой пояс: GMT + 7



Вы не можете начинать темы
Вы не можете отвечать на сообщения
Вы не можете редактировать свои сообщения
Вы не можете удалять свои сообщения
Вы не можете голосовать в опросах
Вы не можете прикреплять файлы к сообщениям
Вы можете скачивать файлы