(Doom Metal) [CD] VA - Doomed Serenades - A Brazilian Doom Metal Compilation - 2012, FLAC (image+.cue), lossless

Ответить на тему
Статистика раздачи [Обновить пиров]
Размер:  588 MB   |    Зарегистрирован:  1 год 6 месяцев   |    Скачан:  0 раз

Полного источника не было: Никогда

 
   
 
 
 
Автор Сообщение

torrentc.info

Создавать темы 16-Фев-2017 09:32

[Цитировать]

Various Artists / Doomed Serenades - A Brazilian Doom Metal Compilation
Жанр: Doom Metal
Носитель: CD
Год издания: 2012
Издатель (лейбл): Lys Aeon Records / Nuktemeron Productions / Impaled Records / Necroroth Records
Номер по каталогу: AA0001000
Страна исполнителя (группы): Brazil
Аудиокодек: FLAC (*.flac)
Тип рипа: image+.cue
Битрейт аудио: lossless
Продолжительность: 01:14:20
Источник (релизер): свой рип
Наличие сканов в содержимом раздачи: да
Трек-лист:
01. ApocalyptichaoS - Nemesis. (07:08)
02. Lacryma Sanguine - The House. (12:31)
03. Imago Mortis - Bring Out Your Head. (06:24)
04. As Dramatic Homage - Ominous Force For Ascension. (04:19)
05. Tristis Terminus - Retreat Conscience. (07:12)
06. Mortarium - The Awaking Of The Spirit. (05:34)
07. De Profvndis Clamati - Quietive Of All Covet. (07:57)
08. Les Mémoires Fall - Deception. (04:25)
09. HellLight - The Light That Brought Darkness. (12:24)
10. In The Shadows - De Profundis (The Chorus Of The Damned). (06:26)- -

Лог создания рипа

Exact Audio Copy V1.1 from 23. June 2015
EAC extraction logfile from 2. December 2015, 16:02
Various Artists / Doomed Serenades - A Brazilian Doom Metal Compilation
Used drive : PIONEER DVD-RW DVR-111D Adapter: 1 ID: 0
Read mode : SecureUtilize accurate stream : YesDefeat audio cache : YesMake use of C2 pointers : No
Read offset correction : 48Overread into Lead-In and Lead-Out : NoFill up missing offset samples with silence : YesDelete leading and trailing silent blocks : NoNull samples used in CRC calculations : YesUsed interface : Native Win32 interface for Win NT & 2000
Used output format : User Defined EncoderSelected bitrate : 1024 kBit/sQuality : HighAdd ID3 tag : NoCommand line compressor : D:\Flac\flac.exeAdditional command line options : -V -8 -T "Date=%year%" -T "Genre=%genre%" %source%
TOC of the extracted CD
Track | Start | Length | Start sector | End sector --------------------------------------------------------- 1 | 0:00.00 | 7:07.15 | 0 | 32039 2 | 7:07.15 | 12:30.05 | 32040 | 88294 3 | 19:37.20 | 6:23.13 | 88295 | 117032 4 | 26:00.33 | 4:18.11 | 117033 | 136393 5 | 30:18.44 | 7:11.30 | 136394 | 168748 6 | 37:29.74 | 5:33.74 | 168749 | 193797 7 | 43:03.73 | 7:56.17 | 193798 | 229514 8 | 51:00.15 | 4:24.14 | 229515 | 249328 9 | 55:24.29 | 12:23.03 | 249329 | 305056 10 | 67:47.32 | 6:25.31 | 305057 | 333962
Range status and errors
Selected range
Filename D:\Rips from Dаrkmind\Various Artists - Doomed Serenades - A Brazilian Doom Metal Compilation.wav
Peak level 100.0 % Extraction speed 7.5 X Range quality 100.0 % Test CRC AC7E4D8A Copy CRC AC7E4D8A Copy OK
No errors occurred
AccurateRip summary
Track 1 accurately ripped (confidence 1) [3D3A0488] (AR v2)Track 2 accurately ripped (confidence 1) [2943FAD1] (AR v2)Track 3 accurately ripped (confidence 1) [E281AD0B] (AR v2)Track 4 accurately ripped (confidence 1) [048B4448] (AR v2)Track 5 accurately ripped (confidence 1) [C261D0BD] (AR v2)Track 6 accurately ripped (confidence 1) [9CFF6026] (AR v2)Track 7 accurately ripped (confidence 1) [03CBB8FE] (AR v2)Track 8 accurately ripped (confidence 1) [C60402F3] (AR v2)Track 9 accurately ripped (confidence 1) [4E8C0626] (AR v2)Track 10 accurately ripped (confidence 1) [CEE09BA4] (AR v2)
All tracks accurately ripped
End of status report
---- CUETools DB Plugin V2.1.6
[CTDB TOCID: t0pWSMohPzIHqHtS8blhDAeJfZw-] foundSubmit result: already submittedTrack | CTDB Status 1 | (1/1) Accurately ripped 2 | (1/1) Accurately ripped 3 | (1/1) Accurately ripped 4 | (1/1) Accurately ripped 5 | (1/1) Accurately ripped 6 | (1/1) Accurately ripped 7 | (1/1) Accurately ripped 8 | (1/1) Accurately ripped 9 | (1/1) Accurately ripped 10 | (1/1) Accurately ripped
==== Log checksum 379956D2632EE59A0E33DCAD0964443A04F17F28DEE291336A66A989B590FAE2 ====

Лог проверки качества

-----------------------
DON'T MODIFY THIS FILE
-----------------------
PERFORMER: auCDtect Task Manager, ver. 1.6.0 RC1 build 1.6.0.1Copyright (c) 2008-2010 y-soft. All rights reservedhttp://y-soft.org
ANALYZER: auCDtect: CD records authenticity detector, version 0.8.2Copyright (c) 2004 Oleg Berngardt. All rights reserved.Copyright (c) 2004 Alexander Djourik. All rights reserved.
FILE: Various Artists - Doomed Serenades - A Brazilian Doom Metal Compilation.flac Size: 484634949 Hash: 3E709DD312029009CC9EA7D570833652 Accuracy: -m0 Conclusion: MPEG 95% Signature: 8EB14270DC2C6A17CEB8F1E0F82577AEA60EEA86

Спектрограмма



[torrentc.info]_torrent-5131404.torrent
Торрент: Зарегистрирован ·  [ 2017-02-16 09:12 ] ·  1e7958cc381147fa5f8b25b6bbeb8fc5672a8c40

13 KB

Статус: проверено
Скачан: 0 раз
Размер: 588 MB
Оценка: 
(Голосов: 0)
Сказали спасибо: 0  Спасибо
Похожие темы
[Профиль]    [ЛС]
Показать сообщения:    
Ответить на тему

Текущее время: Сегодня 07:37

Часовой пояс: GMT + 7



Вы не можете начинать темы
Вы не можете отвечать на сообщения
Вы не можете редактировать свои сообщения
Вы не можете удалять свои сообщения
Вы не можете голосовать в опросах
Вы не можете прикреплять файлы к сообщениям
Вы можете скачивать файлы