(Thrash, Black Metal, Death Metal) VA - Metal For The Masses - 2002, FLAC (image+.cue), lossless

Ответить на тему
Статистика раздачи [Обновить пиров]
Размер:  660 MB   |    Зарегистрирован:  1 год 3 месяца   |    Скачан:  0 раз

Полного источника не было: Никогда

 
   
 
 
 
Автор Сообщение

torrentc.info

Создавать темы 16-Фев-2017 09:32

[Цитировать]

Metal For The Masses
Жанр: Thrash, Black Metal, Death Metal
Страна-производитель диска (релиза): USA
Год издания: 2002
Издатель (лейбл): Century Media
Номер по каталогу: 501-2
Аудиокодек: FLAC (*.flac)
Тип рипа: image+.cue
Битрейт аудио: lossless
Продолжительность: 01:17:53
Источник (релизер): Boris1
Наличие сканов в содержимом раздачи: да
Треклист:
01. Shadows Fall - Thoughts Without Words (4:35)
02. Arch Enemy - Ravenous (4:06)
03. Skinlab - Anthem for a Fallen Star (edit) (3:10)
04. God Forbid - Mind Eraser (1:44)
05. Dark Tranquillity - Monochromatic Stains (3:40)
06. Sentenced - Excuse Me While I Kill Myself (3:53)
07. Strapping Young Lad - Devour (2:56)
08. Yakuza - Yama (3:41)
09. Scar Culture - Branded (2:08 )
10. Shadows Fall - Destroyer of Senses (2:56)
11. Lacuna Coil - Swamped (4:02)
12. Tapping the Vein - Sugarfalls (3:37)
13. In Flames - Cloud Connected (3:43)
14. Meshuggah - Rational Gaze (5:06)
15. Dimmu Borgir - Puritania (3:08 )
16. Soilwork - As We Speak (3:44)
17. Raunchy - Drive (3:43)
18. Immortal - Sons of Northern Darkness (4:49)
19. Darkane - Innocence Gone (4:45)
20. Hypocrisy - Another Dead End (for Another Dead Man) (4:47)
21. In Flames - System (3:40)

Лог создания рипа

Exact Audio Copy V1.0 beta 3 from 29. August 2011
EAC extraction logfile from 29. March 2016, 1:07
Various Artists / Metal for the Masses
Used drive : PIONEER BD-RW BDR-TD03 Adapter: 0 ID: 1
Read mode : SecureUtilize accurate stream : YesDefeat audio cache : YesMake use of C2 pointers : No
Read offset correction : 667Overread into Lead-In and Lead-Out : NoFill up missing offset samples with silence : YesDelete leading and trailing silent blocks : NoNull samples used in CRC calculations : YesUsed interface : Native Win32 interface for Win NT & 2000
Used output format : User Defined EncoderSelected bitrate : 768 kBit/sQuality : HighAdd ID3 tag : NoCommand line compressor : C:\Program Files (x86)\Exact Audio Copy\FLAC\FLAC.EXEAdditional command line options : -6 -V -T "ARTIST=%artist%" -T "TITLE=%title%" -T "ALBUM=%albumtitle%" -T "DATE=%year%" -T "TRACKNUMBER=%tracknr%" -T "GENRE=%genre%" -T "COMMENT=%comment%" -T "BAND=%albuminterpret%" -T "ALBUMARTIST=%albuminterpret%" -T "COMPOSER=%composer%" %haslyrics%--tag-from-file=LYRICS="%lyricsfile%"%haslyrics% -T "DISCNUMBER=%cdnumber%" -T "TOTALDISCS=%totalcds%" -T "TOTALTRACKS=%numtracks%" %hascover%--picture="%coverfile%"%hascover% %source% -o %dest%
TOC of the extracted CD
Track | Start | Length | Start sector | End sector --------------------------------------------------------- 1 | 0:00.00 | 4:35.09 | 0 | 20633 2 | 4:35.09 | 4:06.60 | 20634 | 39143 3 | 8:41.69 | 3:10.12 | 39144 | 53405 4 | 11:52.06 | 1:44.16 | 53406 | 61221 5 | 13:36.22 | 3:40.73 | 61222 | 77794 6 | 17:17.20 | 3:53.36 | 77795 | 95305 7 | 21:10.56 | 2:56.37 | 95306 | 108542 8 | 24:07.18 | 3:41.09 | 108543 | 125126 9 | 27:48.27 | 2:08.69 | 125127 | 134795 10 | 29:57.21 | 2:56.13 | 134796 | 148008 11 | 32:53.34 | 4:02.36 | 148009 | 166194 12 | 36:55.70 | 3:37.36 | 166195 | 182505 13 | 40:33.31 | 3:43.26 | 182506 | 199256 14 | 44:16.57 | 5:06.36 | 199257 | 222242 15 | 49:23.18 | 3:08.32 | 222243 | 236374 16 | 52:31.50 | 3:44.49 | 236375 | 253223 17 | 56:16.24 | 3:43.05 | 253224 | 269953 18 | 59:59.29 | 4:49.07 | 269954 | 291635 19 | 64:48.36 | 4:45.66 | 291636 | 313076 20 | 69:34.27 | 4:47.62 | 313077 | 334663 21 | 74:22.14 | 3:40.39 | 334664 | 351202
Range status and errors
Selected range
Filename C:\Users\Deris\Desktop\kpnemo.eu\MetForMas1\Various Artists - Metal for the Masses.wav
Peak level 100.0 % Extraction speed 5.1 X Range quality 100.0 % Test CRC 930700A7 Copy CRC 930700A7 Copy OK
No errors occurred
AccurateRip summary
Track 1 accurately ripped (confidence 3) [FD0537EB] (AR v1)Track 2 accurately ripped (confidence 3) [F2E5E33A] (AR v1)Track 3 accurately ripped (confidence 3) [06C56279] (AR v1)Track 4 accurately ripped (confidence 3) [6E121E12] (AR v1)Track 5 accurately ripped (confidence 3) [2520ECF6] (AR v1)Track 6 accurately ripped (confidence 3) [A28C620E] (AR v1)Track 7 accurately ripped (confidence 3) [2FA1B882] (AR v1)Track 8 accurately ripped (confidence 3) [132D639F] (AR v1)Track 9 accurately ripped (confidence 3) [CA3205C9] (AR v1)Track 10 accurately ripped (confidence 3) [AFBC5F26] (AR v1)Track 11 accurately ripped (confidence 3) [7C694FD6] (AR v1)Track 12 accurately ripped (confidence 3) [078EEDD8] (AR v1)Track 13 accurately ripped (confidence 3) [6C888E42] (AR v1)Track 14 accurately ripped (confidence 3) [668BEE31] (AR v1)Track 15 accurately ripped (confidence 3) [6C4D6BD4] (AR v1)Track 16 accurately ripped (confidence 3) [4D279270] (AR v1)Track 17 accurately ripped (confidence 3) [D3FA6E49] (AR v1)Track 18 accurately ripped (confidence 2) [BE79698A] (AR v1)Track 19 accurately ripped (confidence 2) [6E05EC1E] (AR v1)Track 20 accurately ripped (confidence 2) [AABB8B59] (AR v1)Track 21 accurately ripped (confidence 3) [1952A9A2] (AR v1)
All tracks accurately ripped
End of status report
---- CUETools DB Plugin V2.1.3
[CTDB TOCID: JKCWdiWFu8hhnS6zznxgZZSpcGk-] found, Submit result: JKCWdiWFu8hhnS6zznxgZZSpcGk- has been confirmed[9a50ebf7] (2/2) Accurately ripped
==== Log checksum 0D6D009946E2E44EA01E880445E377DFA066294F24893C9FC1D47CA4DB189174 ====

Содержание индексной карты (.CUE)

REM GENRE MetalREM DATE 2002REM DISCID 4B124A15REM COMMENT "ExactAudioCopy v1.0b3"PERFORMER "Various Artists"TITLE "Metal for the Masses"FILE "Various Artists - Metal for the Masses.flac" WAVE TRACK 01 AUDIO TITLE "Thoughts Without Words" PERFORMER "Shadows Fall " FLAGS DCP INDEX 01 00:00:00 TRACK 02 AUDIO TITLE "Ravenous" PERFORMER "Arch Enemy" FLAGS DCP INDEX 00 04:33:09 INDEX 01 04:35:09 TRACK 03 AUDIO TITLE "Anthem for a Fallen Star" PERFORMER "Skinlab" FLAGS DCP INDEX 00 08:39:69 INDEX 01 08:41:69 TRACK 04 AUDIO TITLE "Mind Eraser" PERFORMER "God Forbid" FLAGS DCP INDEX 00 11:50:06 INDEX 01 11:52:06 TRACK 05 AUDIO TITLE "Monochromatic Stains" PERFORMER "Dark Tranquillity" FLAGS DCP INDEX 00 13:34:22 INDEX 01 13:36:22 TRACK 06 AUDIO TITLE "Excuse Me While I Kill Myself" PERFORMER "Sentenced " FLAGS DCP INDEX 00 17:15:20 INDEX 01 17:17:20 TRACK 07 AUDIO TITLE "Devour" PERFORMER "Strapping Young Lad" FLAGS DCP INDEX 00 21:08:57 INDEX 01 21:10:56 TRACK 08 AUDIO TITLE "Yama" PERFORMER "Yakuza" FLAGS DCP INDEX 00 24:05:18 INDEX 01 24:07:18 TRACK 09 AUDIO TITLE "Branded" PERFORMER "Scar Culture" FLAGS DCP INDEX 00 27:46:28 INDEX 01 27:48:27 TRACK 10 AUDIO TITLE "Destroyer Of Senses" PERFORMER "Shadows Fall" FLAGS DCP INDEX 00 29:55:22 INDEX 01 29:57:21 TRACK 11 AUDIO TITLE "Swamped" PERFORMER "Lacuna Coil " FLAGS DCP INDEX 00 32:51:34 INDEX 01 32:53:34 TRACK 12 AUDIO TITLE "Sugarfalls" PERFORMER "Tapping the Vein " FLAGS DCP INDEX 00 36:53:70 INDEX 01 36:55:70 TRACK 13 AUDIO TITLE "Cloud Connected" PERFORMER "In Flames" FLAGS DCP INDEX 00 40:31:33 INDEX 01 40:33:31 TRACK 14 AUDIO TITLE "Rational Gaze" PERFORMER "Meshuggah" FLAGS DCP INDEX 00 44:14:57 INDEX 01 44:16:57 TRACK 15 AUDIO TITLE "Puritania" PERFORMER "Dimmu Borgir " FLAGS DCP INDEX 00 49:21:18 INDEX 01 49:23:18 TRACK 16 AUDIO TITLE "As We Speak" PERFORMER "Soilwork" FLAGS DCP INDEX 00 52:29:50 INDEX 01 52:31:50 TRACK 17 AUDIO TITLE "Drive" PERFORMER "Raunchy" FLAGS DCP INDEX 00 56:14:24 INDEX 01 56:16:24 TRACK 18 AUDIO TITLE "Sons of Northern Darkness" PERFORMER "Immortal" FLAGS DCP INDEX 00 59:57:29 INDEX 01 59:59:29 TRACK 19 AUDIO TITLE "Innocence Gone" PERFORMER "Darkane" FLAGS DCP INDEX 00 64:46:36 INDEX 01 64:48:36 TRACK 20 AUDIO TITLE "Another Dead End" PERFORMER "Hypocrisy" FLAGS DCP INDEX 00 69:32:29 INDEX 01 69:34:27 TRACK 21 AUDIO TITLE "System" PERFORMER "In Flames" FLAGS DCP INDEX 00 74:20:14 INDEX 01 74:22:14

DR Log

foobar2000 1.1.10 / Dynamic Range Meter 1.1.1log date: 2016-03-31 10:43:55
--------------------------------------------------------------------------------Analyzed: Arch Enemy / Metal for the Masses (1) Dark Tranquillity / Metal for the Masses (2) Darkane / Metal for the Masses (3)--------------------------------------------------------------------------------
DR Peak RMS Duration Track--------------------------------------------------------------------------------DR8 -0.05 dB -8.95 dB 4:07 ?-RavenousDR7 -0.28 dB -7.61 dB 3:41 ?-Monochromatic StainsDR6 -0.10 dB -6.37 dB 4:46 ?-Innocence Gone--------------------------------------------------------------------------------
Number of tracks: 3Official DR value: DR7
Samplerate: 44100 HzChannels: 2Bits per sample: 16Bitrate: 1047 kbpsCodec: FLAC================================================================================
--------------------------------------------------------------------------------Statistics for: ?-PuritaniaNumber of samples: 8309616Duration: 3:08--------------------------------------------------------------------------------
Left Right
Peak Value: -0.11 dB --- -0.11 dBAvg RMS: -5.79 dB --- -5.31 dBDR channel: 4.40 dB --- 4.06 dB--------------------------------------------------------------------------------
Official DR Value: DR4
Samplerate: 44100 HzChannels: 2Bits per sample: 16Bitrate: 1047 kbpsCodec: FLAC================================================================================--------------------------------------------------------------------------------Analyzed: God Forbid / Metal for the Masses (1) Hypocrisy / Metal for the Masses (2)--------------------------------------------------------------------------------
DR Peak RMS Duration Track--------------------------------------------------------------------------------DR6 0.00 dB -6.49 dB 1:44 ?-Mind EraserDR8 -0.18 dB -9.11 dB 4:48 ?-Another Dead End--------------------------------------------------------------------------------
Number of tracks: 2Official DR value: DR7
Samplerate: 44100 HzChannels: 2Bits per sample: 16Bitrate: 1047 kbpsCodec: FLAC================================================================================
--------------------------------------------------------------------------------Statistics for: ?-Sons of Northern DarknessNumber of samples: 12749016Duration: 4:49--------------------------------------------------------------------------------
Left Right
Peak Value: -0.18 dB --- -0.18 dBAvg RMS: -8.73 dB --- -7.85 dBDR channel: 7.79 dB --- 6.57 dB--------------------------------------------------------------------------------
Official DR Value: DR7
Samplerate: 44100 HzChannels: 2Bits per sample: 16Bitrate: 1047 kbpsCodec: FLAC================================================================================--------------------------------------------------------------------------------Analyzed: In Flames / Metal for the Masses--------------------------------------------------------------------------------
DR Peak RMS Duration Track--------------------------------------------------------------------------------DR5 -0.18 dB -6.81 dB 3:43 ?-Cloud ConnectedDR6 -0.18 dB -7.10 dB 3:41 ?-System--------------------------------------------------------------------------------
Number of tracks: 2Official DR value: DR6
Samplerate: 44100 HzChannels: 2Bits per sample: 16Bitrate: 1047 kbpsCodec: FLAC================================================================================
--------------------------------------------------------------------------------Analyzed: Lacuna Coil / Metal for the Masses (1) Meshuggah / Metal for the Masses (2) Raunchy / Metal for the Masses (3)--------------------------------------------------------------------------------
DR Peak RMS Duration Track--------------------------------------------------------------------------------DR6 -0.05 dB -7.33 dB 4:02 ?-SwampedDR7 -0.10 dB -7.76 dB 5:06 ?-Rational GazeDR7 0.00 dB -8.45 dB 3:43 ?-Drive--------------------------------------------------------------------------------
Number of tracks: 3Official DR value: DR6
Samplerate: 44100 HzChannels: 2Bits per sample: 16Bitrate: 1047 kbpsCodec: FLAC================================================================================
--------------------------------------------------------------------------------Statistics for: ?-BrandedNumber of samples: 5685372Duration: 2:09--------------------------------------------------------------------------------
Left Right
Peak Value: -0.06 dB --- -0.06 dBAvg RMS: -5.59 dB --- -5.88 dBDR channel: 4.46 dB --- 4.89 dB--------------------------------------------------------------------------------
Official DR Value: DR5
Samplerate: 44100 HzChannels: 2Bits per sample: 16Bitrate: 1047 kbpsCodec: FLAC================================================================================--------------------------------------------------------------------------------Statistics for: ?-Excuse Me While I Kill MyselfNumber of samples: 10296468Duration: 3:53--------------------------------------------------------------------------------
Left Right
Peak Value: -0.33 dB --- -0.10 dBAvg RMS: -6.41 dB --- -6.89 dBDR channel: 4.76 dB --- 5.27 dB--------------------------------------------------------------------------------
Official DR Value: DR5
Samplerate: 44100 HzChannels: 2Bits per sample: 16Bitrate: 1047 kbpsCodec: FLAC================================================================================--------------------------------------------------------------------------------Analyzed: Shadows Fall / Metal for the Masses (1) Shadows Fall / Metal for the Masses (2)--------------------------------------------------------------------------------
DR Peak RMS Duration Track--------------------------------------------------------------------------------DR6 -0.16 dB -6.73 dB 4:35 ?-Thoughts Without WordsDR6 -0.15 dB -7.13 dB 2:56 ?-Destroyer Of Senses--------------------------------------------------------------------------------
Number of tracks: 2Official DR value: DR6
Samplerate: 44100 HzChannels: 2Bits per sample: 16Bitrate: 1047 kbpsCodec: FLAC================================================================================
--------------------------------------------------------------------------------Analyzed: Skinlab / Metal for the Masses (1) Soilwork / Metal for the Masses (2)--------------------------------------------------------------------------------
DR Peak RMS Duration Track--------------------------------------------------------------------------------DR6 0.00 dB -6.77 dB 3:10 ?-Anthem for a Fallen StarDR6 -0.13 dB -7.52 dB 3:45 ?-As We Speak--------------------------------------------------------------------------------
Number of tracks: 2Official DR value: DR6
Samplerate: 44100 HzChannels: 2Bits per sample: 16Bitrate: 1047 kbpsCodec: FLAC================================================================================
--------------------------------------------------------------------------------Analyzed: Strapping Young Lad / Metal for the Masses (1) Tapping the Vein / Metal for the Masses (2)--------------------------------------------------------------------------------
DR Peak RMS Duration Track--------------------------------------------------------------------------------DR8 0.00 dB -8.92 dB 2:56 ?-DevourDR6 -0.18 dB -7.18 dB 3:37 ?-Sugarfalls--------------------------------------------------------------------------------
Number of tracks: 2Official DR value: DR7
Samplerate: 44100 HzChannels: 2Bits per sample: 16Bitrate: 1047 kbpsCodec: FLAC================================================================================
--------------------------------------------------------------------------------Statistics for: ?-YamaNumber of samples: 9751392Duration: 3:41--------------------------------------------------------------------------------
Left Right
Peak Value: -0.24 dB --- -0.28 dBAvg RMS: -8.29 dB --- -8.79 dBDR channel: 7.06 dB --- 7.47 dB--------------------------------------------------------------------------------
Official DR Value: DR7
Samplerate: 44100 HzChannels: 2Bits per sample: 16Bitrate: 1047 kbpsCodec: FLAC================================================================================


[torrentc.info]_torrent-5200256.torrent
Торрент: Зарегистрирован ·  [ 2017-02-16 09:12 ] ·  0b644786f7e8a3a9a7c56545ef3662ccaae968d5

14 KB

Статус: проверено
Скачан: 0 раз
Размер: 660 MB
Оценка: 
(Голосов: 0)
Сказали спасибо: 0  Спасибо
Похожие темы
[Профиль]    [ЛС]
Показать сообщения:    
Ответить на тему

Текущее время: Сегодня 21:02

Часовой пояс: GMT + 7



Вы не можете начинать темы
Вы не можете отвечать на сообщения
Вы не можете редактировать свои сообщения
Вы не можете удалять свои сообщения
Вы не можете голосовать в опросах
Вы не можете прикреплять файлы к сообщениям
Вы можете скачивать файлы