(Heavy Metal, Death Metal, Thrash, Hardcore) [CD] VA - Roadrunner Records Sampler - 2001, FLAC (image+.cue), lossless

Ответить на тему
Статистика раздачи [Обновить пиров]
Размер:  334 MB   |    Зарегистрирован:  1 год 8 месяцев   |    Скачан:  0 раз

Полного источника не было: Никогда

 
   
 
 
 
Автор Сообщение

torrentc.info

Создавать темы 16-Фев-2017 09:32

[Цитировать]

.Roadrunner Records Sampler
(CD, Promo, Sampler, Cardboard Sleeve).Жанр: Heavy Metal, Death Metal, Thrash, Hardcore,
Alternative Rock, Industrial, Nu Metal

Носитель: CD
Страна-производитель диска (релиза): Netherlands
Год издания: 2001
Издатель (лейбл): Roadrunner Records
Номер по каталогу: RR PROMO 578
Аудиокодек: FLAC (*.flac)
Тип рипа: image+.cue
Битрейт аудио: lossless
Продолжительность: 00:43:06
Источник (релизер): stas64
Наличие сканов в содержимом раздачи: да - 600 dpi
.
.
.
Треклист:
01. Spineshank - New Disease.
02. Spineshank - Height of Callousness.
03. Sepultura - Sepulnation.
04. Sepultura - One Man Army.
05. Downer - Last Time.
06. Downer - Speed Teeth.
07. Glassjaw - Pretty Lush.
08. Ill Nino - Nothing's Clear (demo).
09. 36 Crazyfists - Circle the Drain (demo).
10. Brujeria - Brujerizmo.
11. Soulfly - Boom.
12. Fear Factory - What Will Become.

Booklet


Лог создания рипа

Exact Audio Copy V1.1 from 23. June 2015
Отчёт EAC об извлечении, выполненном 1. апреля 2016, 21:11
Various / Roadrunner Records Sampler
Дисковод: TSSTcorpCDDVDW SH-222BB Adapter: 2 ID: 0
Режим чтения : ДостоверностьИспользование точного потока : ДаОтключение кэша аудио : ДаИспользование указателей C2 : Нет
Коррекция смещения при чтении : 6Способность читать области Lead-in и Lead-out : НетЗаполнение пропущенных сэмплов тишиной : ДаУдаление блоков с тишиной в начале и конце : НетПри вычислениях CRC использовались нулевые сэмплы : ДаИнтерфейс : Установленный внешний ASPI-интерфейс
Выходной формат : Пользовательский кодировщикВыбранный битрейт : 128 kBit/sКачество : ВысокийДобавление ID3-тега : НетУтилита сжатия : C:\Program Files\Exact Audio Copy\Flac\flac.exeДополнительные параметры : -V -8 -T "Genre=%genre%" -T "Artist=%artist%" -T "Title=%title%" -T "Album=%albumtitle%" -T "Date=%year%" -T "Tracknumber=%tracknr%" -T "Comment=%comment%" %source%
TOC извлечённого CD
Трек | Старт | Длительность | Начальный сектор | Конечный сектор --------------------------------------------------------------------- 1 | 0:00.00 | 3:14.62 | 0 | 14611 2 | 3:14.62 | 3:03.20 | 14612 | 28356 3 | 6:18.07 | 4:18.28 | 28357 | 47734 4 | 10:36.35 | 5:29.00 | 47735 | 72409 5 | 16:05.35 | 2:39.65 | 72410 | 84399 6 | 18:45.25 | 2:43.27 | 84400 | 96651 7 | 21:28.52 | 2:59.20 | 96652 | 110096 8 | 24:27.72 | 3:19.53 | 110097 | 125074 9 | 27:47.50 | 3:39.42 | 125075 | 141541 10 | 31:27.17 | 3:07.00 | 141542 | 155566 11 | 34:34.17 | 5:07.63 | 155567 | 178654 12 | 39:42.05 | 3:24.10 | 178655 | 193964
Характеристики диапазона извлечения и сообщения об ошибках
Выбранный диапазон
Имя файла I:\MOI_RAZDACI\VA_Roadrunner.Records.Sampler_2001\VA_Roadrunner.Records.Sampler_2001\Various - Roadrunner Records Sampler.wav
Пиковый уровень 100.0 % Скорость извлечения 2.7 X Качество диапазона 100.0 % CRC теста 4B15D8A8 CRC копии 4B15D8A8 Копирование... OK
Ошибок не произошло
AccurateRip: сводка
Трек 1 отсутствует в базе данныхТрек 2 отсутствует в базе данныхТрек 3 отсутствует в базе данныхТрек 4 отсутствует в базе данныхТрек 5 отсутствует в базе данныхТрек 6 отсутствует в базе данныхТрек 7 отсутствует в базе данныхТрек 8 отсутствует в базе данныхТрек 9 отсутствует в базе данныхТрек 10 отсутствует в базе данныхТрек 11 отсутствует в базе данныхТрек 12 отсутствует в базе данных
Ни одного трека нет в базе AccurateRip
Конец отчёта
---- CUETools DB Plugin V2.1.6
[CTDB TOCID: LHHAeVU2hqrppfNxNOIg.Lx9HKg-] foundSubmit result: LHHAeVU2hqrppfNxNOIg.Lx9HKg- has been confirmedTrack | CTDB Status 1 | (2/2) Accurately ripped 2 | (2/2) Accurately ripped 3 | (2/2) Accurately ripped 4 | (2/2) Accurately ripped 5 | (2/2) Accurately ripped 6 | (2/2) Accurately ripped 7 | (2/2) Accurately ripped 8 | (2/2) Accurately ripped 9 | (2/2) Accurately ripped 10 | (2/2) Accurately ripped 11 | (2/2) Accurately ripped 12 | (2/2) Accurately ripped
==== Контрольная сумма отчёта ECBA61C623530AD519EA912C424442CAC9DF0212765E97DD4BD44E7E82840913 ====

Содержание индексной карты (.CUE)

REM GENRE "Heavy Metal"REM DATE 2001REM DISCID BF0A1A0CREM COMMENT "ExactAudioCopy v1.1"CATALOG 0000000000000PERFORMER "Various"TITLE "Roadrunner Records Sampler"FILE "Various - Roadrunner Records Sampler.flac" WAVE TRACK 01 AUDIO TITLE "New Disease" PERFORMER "Spineshank" ISRC NLA320019155 INDEX 01 00:00:00 TRACK 02 AUDIO TITLE "Height of Callousness" PERFORMER "Spineshank" ISRC NLA320019153 INDEX 00 03:14:40 INDEX 01 03:14:62 TRACK 03 AUDIO TITLE "Sepulnation" PERFORMER "Sepultura" ISRC NLA320119352 INDEX 01 06:18:07 TRACK 04 AUDIO TITLE "One Man Army" PERFORMER "Sepultura" ISRC NLA320119353 INDEX 00 10:36:32 INDEX 01 10:36:35 TRACK 05 AUDIO TITLE "Last Time" PERFORMER "Downer" ISRC NLA320019041 INDEX 00 16:05:33 INDEX 01 16:05:35 TRACK 06 AUDIO TITLE "Speed Teeth" PERFORMER "Downer" ISRC NLA320019046 INDEX 00 18:45:17 INDEX 01 18:45:25 TRACK 07 AUDIO TITLE "Pretty Lush" PERFORMER "Glassjaw" ISRC NLA320018940 INDEX 00 21:28:40 INDEX 01 21:28:52 TRACK 08 AUDIO TITLE "Nothing's Clear (demo)" PERFORMER "Ill Nino" ISRC NLA320119355 INDEX 00 24:27:69 INDEX 01 24:27:72 TRACK 09 AUDIO TITLE "Circle the Drain (demo)" PERFORMER "36 Crazyfists" ISRC NLA320119356 INDEX 01 27:47:50 TRACK 10 AUDIO TITLE "Brujerizmo" PERFORMER "Brujeria" ISRC NLA320119356 INDEX 00 31:27:03 INDEX 01 31:27:17 TRACK 11 AUDIO TITLE "Boom" PERFORMER "Soulfly" ISRC NLA320019185 INDEX 00 34:34:12 INDEX 01 34:34:17 TRACK 12 AUDIO TITLE "What Will Become?" PERFORMER "Fear Factory" ISRC NLA320119354 INDEX 00 39:41:74 INDEX 01 39:42:05

Лог проверки качества

-----------------------
DON'T MODIFY THIS FILE
-----------------------
PERFORMER: auCDtect Task Manager, ver. 1.5.1RC6 build 1.5.1.7Copyright (c) 2008-2010 y-soft. All rights reservedhttp://y-soft.org
ANALYZER: auCDtect: CD records authenticity detector, version 0.8.2Copyright (c) 2004 Oleg Berngardt. All rights reserved.Copyright (c) 2004 Alexander Djourik. All rights reserved.
FILE: Various - Roadrunner Records Sampler.flac Size: 338790961 Hash: 69A402610FD6106EB99A3E05926934B3 Accuracy: -m0 Conclusion: CDDA 99% Signature: 0D297E4D86A34CDB7A0753E9E7FE81A6CB87784E

Скриншот спектра частот

МОИ РАЗДАЧИ - МУЗЫКА: / MY DISTRIBUTION - MUSIC: Rock music:Прямые кликабельные ссылки на раздачи.
Direct clickable links to hand.


[url=viewtopic.php?t=3886193] [/url] [url=viewtopic.php?t=3898686] [/url] [url=viewtopic.php?t=4027822] [/url]

[url=viewtopic.php?t=4486495] [/url] [url=viewtopic.php?t=4489542] [/url] [url=viewtopic.php?t=4490808] [/url]

[url=viewtopic.php?t=4494077] [/url] [url=viewtopic.php?t=4494610] [/url] [url=viewtopic.php?t=4974565] [/url]

[url=viewtopic.php?t=4984682] [/url] [url=viewtopic.php?t=4990491] [/url] [url=viewtopic.php?t=5008322] [/url]

[url=viewtopic.php?t=3896686] [/url] [url=viewtopic.php?t=3926259] [/url] [url=viewtopic.php?t=3927849] [/url]

[url=viewtopic.php?t=3930258] [/url] [url=viewtopic.php?t=4003636] [/url] [url=viewtopic.php?t=4005463] [/url]

[url=viewtopic.php?t=4009130] [/url] [url=viewtopic.php?t=4009775] [/url] [url=viewtopic.php?t=4485742] [/url]

[url=viewtopic.php?t=4492215] [/url] [url=viewtopic.php?t=4509116] [/url] [url=viewtopic.php?t=4664278] [/url]

[url=viewtopic.php?t=4974101] [/url] [url=viewtopic.php?t=4974270] [/url] [url=viewtopic.php?t=4974788] [/url]

[url=viewtopic.php?t=4980321] [/url] [url=viewtopic.php?t=4984890] [/url] [url=viewtopic.php?t=4985431] [/url]

[url=viewtopic.php?t=4995033] [/url] [url=viewtopic.php?t=5003969] [/url] [url=viewtopic.php?t=5008766] [/url]

[url=viewtopic.php?t=4074391] [/url] [url=viewtopic.php?t=4075381] [/url] [url=viewtopic.php?t=5053684] [/url]

[url=viewtopic.php?t=5058920] [/url] [url=viewtopic.php?t=5060687] [/url] [url=viewtopic.php?t=5060635] [/url]

[url=viewtopic.php?t=5061612] [/url] [url=viewtopic.php?t=5065886] [/url] [url=viewtopic.php?t=5066189] [/url] Pop music:Прямые кликабельные ссылки на раздачи.
Direct clickable links to hand.


[url=viewtopic.php?t=3894616] [/url] [url=viewtopic.php?t=3897343] [/url] [url=viewtopic.php?t=3899710] [/url]

[url=viewtopic.php?t=3920006] [/url] [url=viewtopic.php?t=3927165] [/url] [url=viewtopic.php?t=3942868] [/url]

[url=viewtopic.php?t=3970111] [/url] [url=viewtopic.php?t=3978285] [/url] [url=viewtopic.php?t=4028884] [/url]

[url=viewtopic.php?t=4066017] [/url] [url=viewtopic.php?t=4369135] [/url] [url=viewtopic.php?t=4480229] [/url]

[url=viewtopic.php?t=4481514] [/url] [url=viewtopic.php?t=4488488] [/url] [url=viewtopic.php?t=4999239] [/url]

[url=viewtopic.php?t=5004427] [/url] [url=viewtopic.php?t=5004762] [/url] [url=viewtopic.php?t=5006455] [/url]

[url=viewtopic.php?t=5008115] [/url] [url=viewtopic.php?t=4484373] [/url] [url=viewtopic.php?t=3885744] [/url]

[url=viewtopic.php?t=4662756] [/url] [url=viewtopic.php?t=4370184] [/url] [url=viewtopic.php?t=3872233] [/url]

[url=viewtopic.php?t=3877520] [/url] [url=viewtopic.php?t=3895557] [/url] [url=viewtopic.php?t=3904217] [/url]

[url=viewtopic.php?t=3925588] [/url] [url=viewtopic.php?t=3944898] [/url] [url=viewtopic.php?t=3947502] [/url]

[url=viewtopic.php?t=3953181] [/url] [url=viewtopic.php?t=4036288] [/url] [url=viewtopic.php?t=4037974] [/url]

[url=viewtopic.php?t=4039130] [/url] [url=viewtopic.php?t=4040315] [/url] [url=viewtopic.php?t=4043537] [/url]

[url=viewtopic.php?t=4071275] [/url] [url=viewtopic.php?t=4422972] [/url] [url=viewtopic.php?t=4660192] [/url]

[url=viewtopic.php?t=5057274] [/url] [url=viewtopic.php?t=5058803] [/url] [url=viewtopic.php?t=5037599] [/url]

[url=viewtopic.php?t=5061526] [/url] [url=viewtopic.php?t=5062166] [/url] [url=viewtopic.php?t=5062774] [/url]

[url=viewtopic.php?t=5062271] [/url] [url=viewtopic.php?t=5063394] [/url] [url=viewtopic.php?t=5063217] [/url] Other music including Electronic and Soundtracks:Прямые кликабельные ссылки на раздачи.
Direct clickable links to hand.


[url=viewtopic.php?t=3880181] [/url] [url=viewtopic.php?t=3889895] [/url] [url=viewtopic.php?t=4026654] [/url]

[url=viewtopic.php?t=4028262] [/url] [url=viewtopic.php?t=4489277] [/url] [url=viewtopic.php?t=4508860] [/url]

[url=viewtopic.php?t=4513148] [/url] [url=viewtopic.php?t=4515421] [/url] [url=viewtopic.php?t=4161266] [/url]

[url=viewtopic.php?t=4482773] [/url] [url=viewtopic.php?t=4514792] [/url] [url=viewtopic.php?t=5009451] [/url]

[url=viewtopic.php?t=3902999] [/url] [url=viewtopic.php?t=3938325] [/url] [url=viewtopic.php?t=4491842] [/url]

[url=viewtopic.php?t=4493076] [/url] [url=viewtopic.php?t=4493275] [/url] [url=viewtopic.php?t=4498461] [/url]

[url=viewtopic.php?t=4500077] [/url] [url=viewtopic.php?t=4510998] [/url] [url=viewtopic.php?t=4514221] [/url]

[url=viewtopic.php?t=5004282] [/url] [url=viewtopic.php?t=4486421] [/url] [url=viewtopic.php?t=4510121] [/url]

[url=viewtopic.php?t=3945898] [/url] [url=viewtopic.php?t=4525849] [/url] [url=viewtopic.php?t=4977292] [/url]

[url=viewtopic.php?t=5037978] [/url] [url=viewtopic.php?t=5038043] [/url] [url=viewtopic.php?t=4975284] [/url]

[url=viewtopic.php?t=4666379] [/url] [url=viewtopic.php?t=4521947] [/url] [url=viewtopic.php?t=4496870] [/url]

[url=viewtopic.php?t=3907507] [/url] [url=viewtopic.php?t=4511741] [/url] [url=viewtopic.php?t=4487630] [/url]

[url=viewtopic.php?t=5063004] [/url]


[torrentc.info]_torrent-5200530.torrent
Торрент: Зарегистрирован ·  [ 2017-02-16 09:12 ] ·  b4b1ee188fd433ee12b07ce52bbbae70badc761e

14 KB

Статус: проверено
Скачан: 0 раз
Размер: 334 MB
Оценка: 
(Голосов: 0)
Сказали спасибо: 0  Спасибо
Похожие темы
[Профиль]    [ЛС]
Показать сообщения:    
Ответить на тему

Текущее время: Сегодня 16:38

Часовой пояс: GMT + 7



Вы не можете начинать темы
Вы не можете отвечать на сообщения
Вы не можете редактировать свои сообщения
Вы не можете удалять свои сообщения
Вы не можете голосовать в опросах
Вы не можете прикреплять файлы к сообщениям
Вы можете скачивать файлы