(Trash, Death, Heavy Metal, Nu Metal) [CD] VA - Metal For The Masses volume II - 2003, FLAC (image+.cue), lossless

Ответить на тему
Статистика раздачи [Обновить пиров]
Размер:  693 MB   |    Зарегистрирован:  1 год 4 месяца   |    Скачан:  0 раз

Полного источника не было: Никогда

 
   
 
 
 
Автор Сообщение

torrentc.info

Создавать темы 16-Фев-2017 09:32

[Цитировать]

Metal For The Masses volume II
Жанр: Trash, Death, Heavy Metal, Nu Metal
Носитель: CD
Страна-производитель диска (релиза): USA
Год издания: 2003
Издатель (лейбл): Century Media Records
Номер по каталогу: 7503-2
Аудиокодек: FLAC (*.flac)
Тип рипа: image+.cue
Битрейт аудио: lossless
Продолжительность: 01:18:36
Источник (релизер): Boris1
Наличие сканов в содержимом раздачи: да
Треклист:
01. Watch Them Die - Sadist Ways (3:58 )
02. Arch Enemy - We Will Rise (4:10)
03. My Ruin - Made to Measure (radio edit) (4:43)
04. God Forbid - Better Days (3:57)
05. Skinlab - Beneath the Surface (3:11)
06. Stampin' Ground - Bear the Scars (3:12)
07. Eyes of Fire - Disintegrate (4:07)
08. Moonspell - Everything Invaded (radio edit) (3:58 )
09. Nevermore - Purify (4:05)
10. Shadows Fall - Idiot Box (4:32)
11. Lacuna Coil - Heaven's a Lie (radio edit) (3:56)
12. Haste - With All the Pride and Dignity of a Drowning Swimmer (3:06)
13. Radiation 4 - Tick. Tock. Tick. (2:52)
14. Narcissus - Pride/Politics (3:51)
15. Glass Casket - Pencil Lead Syringe (4:41)
16. Enforsaken - Poison Me (4:18 )
17. Diabolic - From the Astral Plane... Entwined With Infinity (3:49)
18. Misery Index - Retailiate (3:30)
19. Dimmu Borgir - For the World to Dictate Our Death (4:48 )
20. Soilwork - Light the Torch (3:43)

Лог создания рипа

Exact Audio Copy V1.0 beta 3 from 29. August 2011
EAC extraction logfile from 31. March 2016, 13:59
Various Artists / Metal for the Masses Vol. II
Used drive : PIONEER BD-RW BDR-TD03 Adapter: 0 ID: 1
Read mode : SecureUtilize accurate stream : YesDefeat audio cache : YesMake use of C2 pointers : No
Read offset correction : 667Overread into Lead-In and Lead-Out : NoFill up missing offset samples with silence : YesDelete leading and trailing silent blocks : NoNull samples used in CRC calculations : YesUsed interface : Native Win32 interface for Win NT & 2000
Used output format : User Defined EncoderSelected bitrate : 768 kBit/sQuality : HighAdd ID3 tag : NoCommand line compressor : C:\Program Files (x86)\Exact Audio Copy\FLAC\FLAC.EXEAdditional command line options : -6 -V -T "ARTIST=%artist%" -T "TITLE=%title%" -T "ALBUM=%albumtitle%" -T "DATE=%year%" -T "TRACKNUMBER=%tracknr%" -T "GENRE=%genre%" -T "COMMENT=%comment%" -T "BAND=%albuminterpret%" -T "ALBUMARTIST=%albuminterpret%" -T "COMPOSER=%composer%" %haslyrics%--tag-from-file=LYRICS="%lyricsfile%"%haslyrics% -T "DISCNUMBER=%cdnumber%" -T "TOTALDISCS=%totalcds%" -T "TOTALTRACKS=%numtracks%" %hascover%--picture="%coverfile%"%hascover% %source% -o %dest%
TOC of the extracted CD
Track | Start | Length | Start sector | End sector --------------------------------------------------------- 1 | 0:00.00 | 3:58.40 | 0 | 17889 2 | 3:58.40 | 4:10.58 | 17890 | 36697 3 | 8:09.23 | 4:43.47 | 36698 | 57969 4 | 12:52.70 | 3:57.12 | 57970 | 75756 5 | 16:50.07 | 3:11.12 | 75757 | 90093 6 | 20:01.19 | 3:12.57 | 90094 | 104550 7 | 23:14.01 | 4:07.17 | 104551 | 123092 8 | 27:21.18 | 3:58.70 | 123093 | 141012 9 | 31:20.13 | 4:05.73 | 141013 | 159460 10 | 35:26.11 | 4:32.23 | 159461 | 179883 11 | 39:58.34 | 3:56.10 | 179884 | 197593 12 | 43:54.44 | 3:06.12 | 197594 | 211555 13 | 47:00.56 | 2:52.50 | 211556 | 224505 14 | 49:53.31 | 3:51.00 | 224506 | 241830 15 | 53:44.31 | 4:41.32 | 241831 | 262937 16 | 58:25.63 | 4:18.28 | 262938 | 282315 17 | 62:44.16 | 3:49.20 | 282316 | 299510 18 | 66:33.36 | 3:30.15 | 299511 | 315275 19 | 70:03.51 | 4:48.41 | 315276 | 336916 20 | 74:52.17 | 3:43.33 | 336917 | 353674
Range status and errors
Selected range
Filename C:\Users\Deris\Desktop\kpnemo.eu\MetForMas2\cd1\Various Artists - Metal for the Masses Vol. II.wav
Peak level 100.0 % Extraction speed 5.1 X Range quality 100.0 % Test CRC D0757218 Copy CRC D0757218 Copy OK
No errors occurred
AccurateRip summary
Track 1 accurately ripped (confidence 2) [5AB12A9B] (AR v2)Track 2 accurately ripped (confidence 2) [5428AC9D] (AR v2)Track 3 accurately ripped (confidence 2) [60F07D15] (AR v2)Track 4 accurately ripped (confidence 2) [8FD1D0ED] (AR v2)Track 5 accurately ripped (confidence 2) [CA1FA912] (AR v2)Track 6 accurately ripped (confidence 2) [4C29DDB2] (AR v2)Track 7 accurately ripped (confidence 2) [D00AD235] (AR v1)Track 8 accurately ripped (confidence 2) [616882C8] (AR v1)Track 9 accurately ripped (confidence 2) [88215C59] (AR v2)Track 10 accurately ripped (confidence 2) [AFEA283F] (AR v2)Track 11 accurately ripped (confidence 2) [E94C9DF2] (AR v1)Track 12 accurately ripped (confidence 2) [E778B2A8] (AR v1)Track 13 accurately ripped (confidence 2) [A9B052AB] (AR v1)Track 14 accurately ripped (confidence 2) [60CA4EA7] (AR v1)Track 15 accurately ripped (confidence 2) [C6C7B4F2] (AR v1)Track 16 accurately ripped (confidence 2) [50DFAE73] (AR v1)Track 17 accurately ripped (confidence 2) [C100A860] (AR v2)Track 18 accurately ripped (confidence 2) [8BD07CC5] (AR v2)Track 19 accurately ripped (confidence 2) [BE4F8228] (AR v1)Track 20 accurately ripped (confidence 2) [A4F21A70] (AR v1)
All tracks accurately ripped
End of status report
---- CUETools DB Plugin V2.1.3
[CTDB TOCID: 0MkNeVOZMyQBOzXoJt5GnFz5YK0-] found, Submit result: 0MkNeVOZMyQBOzXoJt5GnFz5YK0- has been confirmed[6067c9c1] (4/4) Accurately ripped
==== Log checksum 6771F53FD97D135ABDECB20C12ACBCAE7681AACCB92D8AA69499EACBA15AA2B3 ====

Содержание индексной карты (.CUE)

REM GENRE MetalREM DATE 2003REM DISCID 1E126B14REM COMMENT "ExactAudioCopy v1.0b3"PERFORMER "Various Artists"TITLE "Metal for the Masses Vol. II"FILE "Various Artists - Metal for the Masses Vol. II.flac" WAVE TRACK 01 AUDIO TITLE "Watch Them Die - Sadist Ways" PERFORMER "Various Artists" FLAGS DCP INDEX 01 00:00:00 TRACK 02 AUDIO TITLE "Arch Enemy - We Will Rise" PERFORMER "Various Artists" FLAGS DCP INDEX 00 03:56:40 INDEX 01 03:58:40 TRACK 03 AUDIO TITLE "My Ruin - Made to Measure (Radio Edit)" PERFORMER "Various Artists" FLAGS DCP INDEX 00 08:07:23 INDEX 01 08:09:23 TRACK 04 AUDIO TITLE "God Forbid - Better Days" PERFORMER "Various Artists" FLAGS DCP INDEX 00 12:50:72 INDEX 01 12:52:70 TRACK 05 AUDIO TITLE "Skinlab - Beneath the Surface" PERFORMER "Various Artists" FLAGS DCP INDEX 00 16:48:08 INDEX 01 16:50:07 TRACK 06 AUDIO TITLE "Stampin' Ground - Bear the Scars" PERFORMER "Various Artists" FLAGS DCP INDEX 00 19:59:19 INDEX 01 20:01:19 TRACK 07 AUDIO TITLE "Eyes Of Fire - Disintegrate" PERFORMER "Various Artists" FLAGS DCP INDEX 00 23:12:01 INDEX 01 23:14:01 TRACK 08 AUDIO TITLE "Moonspell - Everything Invaded (Radio Edit)" PERFORMER "Various Artists" FLAGS DCP INDEX 00 27:19:19 INDEX 01 27:21:18 TRACK 09 AUDIO TITLE "Nevermore - Never Purify" PERFORMER "Various Artists" FLAGS DCP INDEX 00 31:18:14 INDEX 01 31:20:13 TRACK 10 AUDIO TITLE "Shadows Fall - Idiot Box" PERFORMER "Various Artists" FLAGS DCP INDEX 00 35:24:11 INDEX 01 35:26:11 TRACK 11 AUDIO TITLE "Lacuna Coil - Heaven's a Lie (Radio Edit)" PERFORMER "Various Artists" FLAGS DCP INDEX 00 39:56:34 INDEX 01 39:58:34 TRACK 12 AUDIO TITLE "Haste - With All the Pride and Dignity of a Drowning Swimmer" PERFORMER "Various Artists" FLAGS DCP INDEX 00 43:52:44 INDEX 01 43:54:44 TRACK 13 AUDIO TITLE "Radiation 4 - Tick. Tock. Tick." PERFORMER "Various Artists" FLAGS DCP INDEX 00 46:58:56 INDEX 01 47:00:56 TRACK 14 AUDIO TITLE "Politics" PERFORMER "Narciccuc - Pride" FLAGS DCP INDEX 00 49:51:31 INDEX 01 49:53:31 TRACK 15 AUDIO TITLE "Glass Casket - Pencil Lead Syringe" PERFORMER "Various Artists" FLAGS DCP INDEX 00 53:42:32 INDEX 01 53:44:31 TRACK 16 AUDIO TITLE "Enforsaken - Poison Me" PERFORMER "Various Artists" FLAGS DCP INDEX 00 58:23:63 INDEX 01 58:25:63 TRACK 17 AUDIO TITLE "Diabolic - From the Astral Plane...Entwined With Infinity" PERFORMER "Various Artists" FLAGS DCP INDEX 00 62:42:16 INDEX 01 62:44:16 TRACK 18 AUDIO TITLE "Misery Index - Retailiate" PERFORMER "Various Artists" FLAGS DCP INDEX 00 66:31:36 INDEX 01 66:33:36 TRACK 19 AUDIO TITLE "Dimmu Bogir - For the World to Dictate our Death" PERFORMER "Various Artists" FLAGS DCP INDEX 00 70:01:51 INDEX 01 70:03:51 TRACK 20 AUDIO TITLE "Soilwork - Light the Torch" PERFORMER "Various Artists" FLAGS DCP INDEX 00 74:50:20 INDEX 01 74:52:17

Об альбоме

Metall For The Masses - коллекция современного металла, мозаика сложенная из европейских и американских команд. Arch Enemy, My Ruin, God Forbid, Stampin' Ground, Soilwork, Lacuna Coil, Shadows Fall и многие другие собраны на этом диске. Второй диск MP3.


[torrentc.info]_torrent-5201229.torrent
Торрент: Зарегистрирован ·  [ 2017-02-16 09:12 ] ·  77a92a61fa20431cb02bc8adb86498499f51566b

15 KB

Статус: проверено
Скачан: 0 раз
Размер: 693 MB
Оценка: 
(Голосов: 0)
Сказали спасибо: 0  Спасибо
Похожие темы
[Профиль]    [ЛС]
Показать сообщения:    
Ответить на тему

Текущее время: Сегодня 15:06

Часовой пояс: GMT + 7



Вы не можете начинать темы
Вы не можете отвечать на сообщения
Вы не можете редактировать свои сообщения
Вы не можете удалять свои сообщения
Вы не можете голосовать в опросах
Вы не можете прикреплять файлы к сообщениям
Вы можете скачивать файлы