[BR][OF] King Crimson - Lizard (Sailors\' Tales) (40 Anniversary Edition) - 2017 (Rock, Prog Rock)

Ответить на тему
Статистика раздачи [Обновить пиров]
Размер:  47.95 GB   |    Зарегистрирован:  11 месяцев 9 дней   |    Скачан:  0 раз

Полного источника не было: Никогда

 
   
 
 
 
Автор Сообщение

torrentc.info

Создавать темы 07-Дек-2017 21:42

[Цитировать]

King Crimson / Lizard (Sailors' Tales)
Формат файла записи/Источник записи: [BR][OF]
Наличие водяных знаков: Нет
Издание: 40 Anniversary Edition
Год издания/переиздания диска: 2017
Жанр: Rock, Prog Rock
Издатель (лейбл): Discipline Global Mobile, Panegyric, Inner Knot
Продолжительность: 0:42:50+1:37:26+0:44:50+0:42:50+0:42:34+0:42:33+0:29:34
Наличие сканов в содержимом раздачи: Да (сканы)
Источник (релизер): ALLexxess
Формат файла: BDMV
Тип рипа: folder
Разрядность: 24/96
Формат файла: LPCM, DTS-HD MA
Количество каналов: 2.0, 5.1

Треклист

Lizard Original Stereo/New Stereo/5.1 24/96
1. Cirkus
2. Indoor Games
3. Happy Family
4. Lady Of The Dancing Water
5. Lizard
An Alternative Album Selection 24/96 Stereo
1. Cirkus (Live, Moore Theatre, Seattle, June 11th, 2017)
2. Indoor Games (Alternate Take)
3. Happy Family (Alternate Take)
4. Lady Of The Dancing Water (Alternate Take)
5. Prince Rupert Awakes (Jon Anderson, Vocals, 2017 Mix by David Singleton)
6. Prince Rupert Awakes (Keith Tippett, Piano)
7. Bolero - The Peacock's Tale (Original Studio Recording, Bass Overdub: Tony Levin)
8. The Lizard Suite (Live, Centre Videotron, Quebec City, Canada, July 7th, 2017)
Additional Material 24/96 Stereo
09. Cirkus (Extract: Robert Fripp, Guitar)
10. Cirkus (Studio Run Through With Guide Vocal)
11. Cirkus (Extract (2): Robert Fripp, Guitar)
12. Indoor Games (Redux Mix)
13. Happy Family (Redux Mix)
14. Mel & Tron (Mel Collins, Robert Fripp, Working Idea)
15. Lady Of The Dancing Water (Take 1: Robert Fripp, Guitar)
16. Dawn Song (Take With Metronome)
17. Last Skirmish (Keith Tippett, Piano; Gordon Haskell, Bass; Andy McCulloch, Drums)
18. Cirkus (Mark Charig, Cornet; Gordon Haskell, Bass; Andy McCulloch, Drums)
19 Happy Family (Fulham Palace Café Rehearsal)
20. Prince Rupert's Lament (Alternate Take, 2015 Mix By Jakko Jakszyk)
21. Big Top (Keith Tippett, Piano)
22. Prince Rupert Awakes (Endpiece: Jon Anderson, Vocals 2017 Mix By David Singleton)
Needledrops 24/96 Stereo ILPS 9141 (Lizard)
1. Cirkus
2. Indoor Games
3. Happy Family
4. Lady Of The Dancing Water
5. Lizard
Rehearsals For 1971/72 Band Line-Up 24/96 Stereo
1. Blow No. 1
2. Blow No. 2
3. Blow No. 3

BDInfo

Disc Title: King Crimson LizardDisc Size: 48,994,056,192 bytesProtection: AACS(v63)BD-Java: YesBDInfo: 0.5.8.1 (compatible layout created by DVDFab 9.3.1.2)
Notes:
BDINFO HOME: Cinema Squid (original standalone tool) http://www.cinemasquid.com/blu-ray/tools/bdinfo DVDFab http://www.dvdfab.cn/bdinfo.htm
INCLUDES FORUMS REPORT FOR: AVS Forum Blu-ray Audio and Video Specifications Thread http://www.avsforum.com/avs-vb/showthread.php?t=1155731
********************PLAYLIST: 00002.MPLS********************
Total   Video
Title                                                           Codec   Length   Movie Size      Disc Size       Bitrate Bitrate Main Audio Track                          Secondary Audio Track
-----                                                           ------  -------  --------------  --------------  ------- ------- ------------------                        ---------------------
00002.MPLS                                                      AVC     0:42:50  10,132,942,848  48,994,056,192  31.53   5.00    LPCM 2.0                                  DTS-HD Master 5.1DTS-HD Master 5.1
DISC INFO:
Disc Title:     King Crimson Lizard
Disc Size:      48,994,056,192 bytes
Protection:     AACS(v63)
BD-Java:        Yes
BDInfo:         0.5.8.1 (compatible layout created by DVDFab 9.3.1.2)
PLAYLIST REPORT:
Name:                   00002.MPLS
Length:                 0:42:50.776 (h:m:s.ms)
Size:                   10,132,942,848 bytes
Total Bitrate:          31.53 Mbps
VIDEO:
Codec                   Bitrate             Description
-----                   -------             -----------
MPEG-4 AVC Video        5001 kbps           1080p / 23.976 fps / 16:9 / High Profile 4.1
AUDIO:
Codec                           Language        Bitrate         Description
-----                           --------        -------         -----------
LPCM Audio                      English         4608 kbps       2.0 / 96 kHz / 4608 kbps / 24-bit
DTS-HD Master Audio             English         6077 kbps       5.1 / 96 kHz / 6077 kbps / 24-bit (DTS Core: 5.1 / 48 kHz / 1509 kbps / 24-bit)
LPCM Audio                      English         13824 kbps      5.1 / 96 kHz / 13824 kbps / 24-bit
FILES:
Name            Time In         Length          Size            Total Bitrate
----            -------         ------          ----            -------------
00002.M2TS      0:00:00.000     0:42:50.776     10,132,942,848  31,532 kbps
CHAPTERS:
Number          Time In         Length          Avg Video Rate  Max 1-Sec Rate  Max 1-Sec Time  Max 5-Sec Rate  Max 5-Sec Time  Max 10Sec Rate  Max 10Sec Time  Avg Frame Size  Max Frame Size  Max Frame Time
------          -------         ------          --------------  --------------  --------------  --------------  --------------  --------------  --------------  --------------  --------------  --------------
1               0:00:00.000     0:06:34.811     5,053 kbps      12,330 kbps     0:00:04.921     6,390 kbps      0:00:04.921     5,731 kbps      0:00:04.921     26,345 bytes    572,889 bytes   0:00:43.001
2               0:06:34.811     0:05:35.793     5,041 kbps      8,591 kbps      0:12:09.603     5,788 kbps      0:12:05.766     5,352 kbps      0:12:00.761     26,281 bytes    564,965 bytes   0:07:52.889
3               0:12:10.604     0:04:15.296     5,046 kbps      6,503 kbps      0:16:25.067     5,361 kbps      0:16:21.063     5,260 kbps      0:16:16.058     26,309 bytes    569,527 bytes   0:14:53.767
4               0:16:25.901     0:02:46.666     5,069 kbps      8,600 kbps      0:19:11.567     5,824 kbps      0:19:07.563     5,394 kbps      0:19:02.558     26,436 bytes    565,082 bytes   0:18:06.001
5               0:19:12.568     0:11:16.092     4,967 kbps      8,265 kbps      0:30:27.659     5,696 kbps      0:30:23.655     5,385 kbps      0:30:18.650     25,900 bytes    567,965 bytes   0:20:05.621
6               0:30:28.660     0:10:59.408     4,977 kbps      8,479 kbps      0:41:27.067     5,681 kbps      0:41:23.063     5,412 kbps      0:41:18.058     25,948 bytes    564,783 bytes   0:36:05.997
7               0:41:28.068     0:01:22.707     4,756 kbps      5,681 kbps      0:42:41.100     5,196 kbps      0:42:38.055     5,133 kbps      0:42:06.941     24,786 bytes    572,443 bytes   0:42:07.107
STREAM DIAGNOSTICS:
File            PID             Type            Codec           Language                Seconds                 Bitrate                 Bytes           Packets
----            ---             ----            -----           --------                --------------          --------------          -------------   -----
00002.M2TS      4113 (0x1011)   0x1B            AVC                                     2570.73                 5000.6                  1,606,902,338   8,769,614
00002.M2TS      4352 (0x1100)   0x80            LPCM            eng (English)           2570.80                 4608                    1,482,843,208   8,226,592
00002.M2TS      4353 (0x1101)   0x86            DTS-HD MA       eng (English)           2570.79                 6076.88                 1,952,802,672   11,013,608
00002.M2TS      4354 (0x1102)   0x80            LPCM            eng (English)           2570.80                 13824                   4,444,416,328   24,679,776
QUICK SUMMARY:
Disc Title: King Crimson LizardDisc Size: 48,994,056,192 bytesProtection: AACS(v63)BD-Java: YesPlaylist: 00002.MPLSSize: 10,132,942,848 bytesLength: 0:42:50.776Total Bitrate: 31.53 MbpsVideo: MPEG-4 AVC Video / 5001 kbps / 1080p / 23.976 fps / 16:9 / High Profile 4.1Audio: English / LPCM Audio / 2.0 / 96 kHz / 4608 kbps / 24-bitAudio: English / DTS-HD Master Audio / 5.1 / 96 kHz / 6077 kbps / 24-bit (DTS Core: 5.1 / 48 kHz / 1509 kbps / 24-bit)Audio: English / LPCM Audio / 5.1 / 96 kHz / 13824 kbps / 24-bit
********************PLAYLIST: 00007.MPLS********************
Total   Video
Title                                                           Codec   Length   Movie Size      Disc Size       Bitrate Bitrate Main Audio Track                          Secondary Audio Track
-----                                                           ------  -------  --------------  --------------  ------- ------- ------------------                        ---------------------
00007.MPLS                                                      AVC     1:37:26  16,558,196,736  48,994,056,192  22.66   16.93   LPCM 2.0
DISC INFO:
Disc Title:     King Crimson Lizard
Disc Size:      48,994,056,192 bytes
Protection:     AACS(v63)
BD-Java:        Yes
BDInfo:         0.5.8.1 (compatible layout created by DVDFab 9.3.1.2)
PLAYLIST REPORT:
Name:                   00007.MPLS
Length:                 1:37:26.340 (h:m:s.ms)
Size:                   16,558,196,736 bytes
Total Bitrate:          22.66 Mbps
VIDEO:
Codec                   Bitrate             Description
-----                   -------             -----------
MPEG-4 AVC Video        16934 kbps          1080p / 23.976 fps / 16:9 / High Profile 4.1
AUDIO:
Codec                           Language        Bitrate         Description
-----                           --------        -------         -----------
LPCM Audio                      English         4608 kbps       2.0 / 96 kHz / 4608 kbps / 24-bit
FILES:
Name            Time In         Length          Size            Total Bitrate
----            -------         ------          ----            -------------
00007.M2TS      0:00:00.000     1:37:26.340     16,558,196,736  22,657 kbps
CHAPTERS:
Number          Time In         Length          Avg Video Rate  Max 1-Sec Rate  Max 1-Sec Time  Max 5-Sec Rate  Max 5-Sec Time  Max 10Sec Rate  Max 10Sec Time  Avg Frame Size  Max Frame Size  Max Frame Time
------          -------         ------          --------------  --------------  --------------  --------------  --------------  --------------  --------------  --------------  --------------  --------------
1               0:00:00.000     0:45:17.423     16,849 kbps     38,146 kbps     0:00:04.462     20,441 kbps     0:00:04.379     18,797 kbps     0:00:04.379     87,842 bytes    833,358 bytes   0:00:09.884
2               0:45:17.423     0:27:44.746     16,973 kbps     22,234 kbps     1:13:01.168     18,063 kbps     1:12:57.164     17,496 kbps     1:12:52.159     88,492 bytes    828,430 bytes   1:13:02.086
3               1:13:02.169     0:24:24.171     17,044 kbps     21,628 kbps     1:37:25.297     17,934 kbps     1:37:21.293     17,501 kbps     1:37:16.288     88,866 bytes    861,131 bytes   1:37:26.215
STREAM DIAGNOSTICS:
File            PID             Type            Codec           Language                Seconds                 Bitrate                 Bytes           Packets
----            ---             ----            -----           --------                --------------          --------------          -------------   -----
00007.M2TS      4113 (0x1011)   0x1B            AVC                                     5846.30                 16933.6                 12,374,861,997  67,335,889
00007.M2TS      4352 (0x1100)   0x80            LPCM            eng (English)           5846.34                 4608                    3,372,171,796   18,708,304
QUICK SUMMARY:
Disc Title: King Crimson LizardDisc Size: 48,994,056,192 bytesProtection: AACS(v63)BD-Java: YesPlaylist: 00007.MPLSSize: 16,558,196,736 bytesLength: 1:37:26.340Total Bitrate: 22.66 MbpsVideo: MPEG-4 AVC Video / 16934 kbps / 1080p / 23.976 fps / 16:9 / High Profile 4.1Audio: English / LPCM Audio / 2.0 / 96 kHz / 4608 kbps / 24-bit
********************PLAYLIST: 00005.MPLS********************
Total   Video
Title                                                           Codec   Length   Movie Size      Disc Size       Bitrate Bitrate Main Audio Track                          Secondary Audio Track
-----                                                           ------  -------  --------------  --------------  ------- ------- ------------------                        ---------------------
00005.MPLS                                                      AVC     0:44:50  3,431,030,784   48,994,056,192  10.20   5.00    LPCM 2.0
DISC INFO:
Disc Title:     King Crimson Lizard
Disc Size:      48,994,056,192 bytes
Protection:     AACS(v63)
BD-Java:        Yes
BDInfo:         0.5.8.1 (compatible layout created by DVDFab 9.3.1.2)
PLAYLIST REPORT:
Name:                   00005.MPLS
Length:                 0:44:50.771 (h:m:s.ms)
Size:                   3,431,030,784 bytes
Total Bitrate:          10.20 Mbps
VIDEO:
Codec                   Bitrate             Description
-----                   -------             -----------
MPEG-4 AVC Video        5000 kbps           1080p / 23.976 fps / 16:9 / High Profile 4.1
AUDIO:
Codec                           Language        Bitrate         Description
-----                           --------        -------         -----------
LPCM Audio                      English         4608 kbps       2.0 / 96 kHz / 4608 kbps / 24-bit
FILES:
Name            Time In         Length          Size            Total Bitrate
----            -------         ------          ----            -------------
00005.M2TS      0:00:00.000     0:44:50.771     3,431,030,784   10,200 kbps
CHAPTERS:
Number          Time In         Length          Avg Video Rate  Max 1-Sec Rate  Max 1-Sec Time  Max 5-Sec Rate  Max 5-Sec Time  Max 10Sec Rate  Max 10Sec Time  Avg Frame Size  Max Frame Size  Max Frame Time
------          -------         ------          --------------  --------------  --------------  --------------  --------------  --------------  --------------  --------------  --------------  --------------
1               0:00:00.000     0:07:44.964     5,078 kbps      13,313 kbps     0:00:04.963     6,552 kbps      0:00:04.963     5,721 kbps      0:00:04.963     26,472 bytes    690,493 bytes   0:00:06.005
2               0:07:44.964     0:05:40.048     4,947 kbps      9,354 kbps      0:13:24.011     5,849 kbps      0:13:20.007     5,401 kbps      0:13:15.002     25,795 bytes    633,380 bytes   0:07:45.965
3               0:13:25.012     0:04:30.895     4,982 kbps      9,357 kbps      0:17:54.907     5,849 kbps      0:17:50.903     5,420 kbps      0:17:45.898     25,975 bytes    630,652 bytes   0:13:27.014
4               0:17:55.908     0:02:47.500     4,986 kbps      8,720 kbps      0:20:42.407     5,759 kbps      0:20:38.403     5,380 kbps      0:20:33.398     25,998 bytes    635,935 bytes   0:19:00.973
5               0:20:43.408     0:02:36.489     5,031 kbps      8,669 kbps      0:23:18.897     5,755 kbps      0:23:14.893     5,381 kbps      0:23:09.888     26,232 bytes    637,819 bytes   0:20:46.411
6               0:23:19.898     0:03:22.493     5,036 kbps      8,699 kbps      0:26:41.391     5,761 kbps      0:26:37.387     5,383 kbps      0:26:32.382     26,257 bytes    637,791 bytes   0:24:27.966
7               0:26:42.392     0:06:47.281     5,041 kbps      9,562 kbps      0:33:28.673     5,922 kbps      0:33:24.669     5,467 kbps      0:33:19.664     26,283 bytes    634,931 bytes   0:26:43.393
8               0:33:29.674     0:11:21.097     4,941 kbps      5,027 kbps      0:33:29.841     5,026 kbps      0:33:29.841     5,025 kbps      0:33:29.841     25,763 bytes    624,840 bytes   0:33:31.676
STREAM DIAGNOSTICS:
File            PID             Type            Codec           Language                Seconds                 Bitrate                 Bytes           Packets
----            ---             ----            -----           --------                --------------          --------------          -------------   -----
00005.M2TS      4113 (0x1011)   0x1B            AVC                                     2690.73                 5000.4                  1,681,841,591   9,169,226
00005.M2TS      4352 (0x1100)   0x80            LPCM            eng (English)           2690.80                 4608                    1,552,056,324   8,610,576
QUICK SUMMARY:
Disc Title: King Crimson LizardDisc Size: 48,994,056,192 bytesProtection: AACS(v63)BD-Java: YesPlaylist: 00005.MPLSSize: 3,431,030,784 bytesLength: 0:44:50.771Total Bitrate: 10.20 MbpsVideo: MPEG-4 AVC Video / 5000 kbps / 1080p / 23.976 fps / 16:9 / High Profile 4.1Audio: English / LPCM Audio / 2.0 / 96 kHz / 4608 kbps / 24-bit
********************PLAYLIST: 00003.MPLS********************
Total   Video
Title                                                           Codec   Length   Movie Size      Disc Size       Bitrate Bitrate Main Audio Track                          Secondary Audio Track
-----                                                           ------  -------  --------------  --------------  ------- ------- ------------------                        ---------------------
00003.MPLS                                                      AVC     0:42:50  3,279,759,360   48,994,056,192  10.21   5.00    LPCM 2.0
DISC INFO:
Disc Title:     King Crimson Lizard
Disc Size:      48,994,056,192 bytes
Protection:     AACS(v63)
BD-Java:        Yes
BDInfo:         0.5.8.1 (compatible layout created by DVDFab 9.3.1.2)
PLAYLIST REPORT:
Name:                   00003.MPLS
Length:                 0:42:50.776 (h:m:s.ms)
Size:                   3,279,759,360 bytes
Total Bitrate:          10.21 Mbps
VIDEO:
Codec                   Bitrate             Description
-----                   -------             -----------
MPEG-4 AVC Video        5000 kbps           1080p / 23.976 fps / 16:9 / High Profile 4.1
AUDIO:
Codec                           Language        Bitrate         Description
-----                           --------        -------         -----------
LPCM Audio                      English         4608 kbps       2.0 / 96 kHz / 4608 kbps / 24-bit
FILES:
Name            Time In         Length          Size            Total Bitrate
----            -------         ------          ----            -------------
00003.M2TS      0:00:00.000     0:42:50.776     3,279,759,360   10,206 kbps
CHAPTERS:
Number          Time In         Length          Avg Video Rate  Max 1-Sec Rate  Max 1-Sec Time  Max 5-Sec Rate  Max 5-Sec Time  Max 10Sec Rate  Max 10Sec Time  Avg Frame Size  Max Frame Size  Max Frame Time
------          -------         ------          --------------  --------------  --------------  --------------  --------------  --------------  --------------  --------------  --------------  --------------
1               0:00:00.000     0:06:45.029     5,069 kbps      11,169 kbps     0:00:04.921     6,374 kbps      0:00:24.941     5,917 kbps      0:00:21.938     26,426 bytes    583,041 bytes   0:00:49.007
2               0:06:45.029     0:05:36.377     4,952 kbps      6,140 kbps      0:12:20.406     5,264 kbps      0:12:16.402     5,159 kbps      0:07:23.818     25,819 bytes    568,452 bytes   0:08:05.109
3               0:12:21.407     0:04:16.047     4,966 kbps      8,743 kbps      0:16:36.453     5,806 kbps      0:16:32.449     5,467 kbps      0:16:27.444     25,893 bytes    576,865 bytes   0:15:05.571
4               0:16:37.454     0:02:48.710     4,990 kbps      8,500 kbps      0:19:25.164     5,778 kbps      0:19:21.159     5,420 kbps      0:19:16.155     26,018 bytes    569,520 bytes   0:19:05.602
5               0:19:26.165     0:11:15.091     4,997 kbps      8,577 kbps      0:30:40.255     5,909 kbps      0:30:36.251     5,528 kbps      0:30:31.246     26,055 bytes    573,833 bytes   0:20:05.204
6               0:30:41.256     0:10:54.862     4,999 kbps      7,703 kbps      0:41:35.117     5,654 kbps      0:41:31.113     5,401 kbps      0:41:26.108     26,063 bytes    576,587 bytes   0:41:06.881
7               0:41:36.118     0:01:14.657     5,000 kbps      6,657 kbps      0:42:48.107     5,437 kbps      0:42:45.145     5,238 kbps      0:42:40.140     26,056 bytes    577,162 bytes   0:42:07.149
STREAM DIAGNOSTICS:
File            PID             Type            Codec           Language                Seconds                 Bitrate                 Bytes           Packets
----            ---             ----            -----           --------                --------------          --------------          -------------   -----
00003.M2TS      4113 (0x1011)   0x1B            AVC                                     2570.73                 4999.87                 1,606,666,856   8,769,356
00003.M2TS      4352 (0x1100)   0x80            LPCM            eng (English)           2570.80                 4608                    1,482,843,208   8,226,592
QUICK SUMMARY:
Disc Title: King Crimson LizardDisc Size: 48,994,056,192 bytesProtection: AACS(v63)BD-Java: YesPlaylist: 00003.MPLSSize: 3,279,759,360 bytesLength: 0:42:50.776Total Bitrate: 10.21 MbpsVideo: MPEG-4 AVC Video / 5000 kbps / 1080p / 23.976 fps / 16:9 / High Profile 4.1Audio: English / LPCM Audio / 2.0 / 96 kHz / 4608 kbps / 24-bit
********************PLAYLIST: 00004.MPLS********************
Total   Video
Title                                                           Codec   Length   Movie Size      Disc Size       Bitrate Bitrate Main Audio Track                          Secondary Audio Track
-----                                                           ------  -------  --------------  --------------  ------- ------- ------------------                        ---------------------
00004.MPLS                                                      AVC     0:42:34  3,258,802,176   48,994,056,192  10.21   5.00    LPCM 2.0
DISC INFO:
Disc Title:     King Crimson Lizard
Disc Size:      48,994,056,192 bytes
Protection:     AACS(v63)
BD-Java:        Yes
BDInfo:         0.5.8.1 (compatible layout created by DVDFab 9.3.1.2)
PLAYLIST REPORT:
Name:                   00004.MPLS
Length:                 0:42:34.510 (h:m:s.ms)
Size:                   3,258,802,176 bytes
Total Bitrate:          10.21 Mbps
VIDEO:
Codec                   Bitrate             Description
-----                   -------             -----------
MPEG-4 AVC Video        5000 kbps           1080p / 23.976 fps / 16:9 / High Profile 4.1
AUDIO:
Codec                           Language        Bitrate         Description
-----                           --------        -------         -----------
LPCM Audio                      English         4608 kbps       2.0 / 96 kHz / 4608 kbps / 24-bit
FILES:
Name            Time In         Length          Size            Total Bitrate
----            -------         ------          ----            -------------
00004.M2TS      0:00:00.000     0:42:34.510     3,258,802,176   10,205 kbps
CHAPTERS:
Number          Time In         Length          Avg Video Rate  Max 1-Sec Rate  Max 1-Sec Time  Max 5-Sec Rate  Max 5-Sec Time  Max 10Sec Rate  Max 10Sec Time  Avg Frame Size  Max Frame Size  Max Frame Time
------          -------         ------          --------------  --------------  --------------  --------------  --------------  --------------  --------------  --------------  --------------  --------------
1               0:00:00.000     0:06:31.557     5,014 kbps      10,404 kbps     0:00:05.505     6,404 kbps      0:00:24.524     5,940 kbps      0:00:21.521     26,141 bytes    623,554 bytes   0:01:04.606
2               0:06:31.557     0:05:37.920     4,976 kbps      8,817 kbps      0:12:08.477     5,752 kbps      0:12:04.473     5,315 kbps      0:11:59.468     25,943 bytes    583,477 bytes   0:12:04.890
3               0:12:09.478     0:04:20.510     5,007 kbps      8,070 kbps      0:16:28.988     5,692 kbps      0:16:24.984     5,388 kbps      0:16:19.979     26,106 bytes    582,963 bytes   0:13:58.587
4               0:16:29.989     0:02:47.166     5,012 kbps      5,608 kbps      0:16:38.288     5,216 kbps      0:18:29.024     5,189 kbps      0:18:26.855     26,133 bytes    579,139 bytes   0:19:05.144
5               0:19:17.156     0:11:15.091     5,013 kbps      8,388 kbps      0:30:31.246     5,779 kbps      0:30:27.242     5,434 kbps      0:30:22.237     26,136 bytes    584,772 bytes   0:22:04.323
6               0:30:32.247     0:10:54.236     4,984 kbps      8,473 kbps      0:41:25.482     5,750 kbps      0:41:21.479     5,387 kbps      0:41:16.474     25,988 bytes    597,014 bytes   0:34:06.461
7               0:41:26.484     0:01:08.026     4,983 kbps      6,878 kbps      0:42:30.381     5,812 kbps      0:42:26.460     5,624 kbps      0:42:21.455     25,963 bytes    689,934 bytes   0:42:29.547
STREAM DIAGNOSTICS:
File            PID             Type            Codec           Language                Seconds                 Bitrate                 Bytes           Packets
----            ---             ----            -----           --------                --------------          --------------          -------------   -----
00004.M2TS      4113 (0x1011)   0x1B            AVC                                     2554.47                 4999.77                 1,596,469,866   8,712,800
00004.M2TS      4352 (0x1100)   0x80            LPCM            eng (English)           2554.53                 4608                    1,473,458,672   8,174,528
QUICK SUMMARY:
Disc Title: King Crimson LizardDisc Size: 48,994,056,192 bytesProtection: AACS(v63)BD-Java: YesPlaylist: 00004.MPLSSize: 3,258,802,176 bytesLength: 0:42:34.510Total Bitrate: 10.21 MbpsVideo: MPEG-4 AVC Video / 5000 kbps / 1080p / 23.976 fps / 16:9 / High Profile 4.1Audio: English / LPCM Audio / 2.0 / 96 kHz / 4608 kbps / 24-bit
********************PLAYLIST: 00008.MPLS********************
Total   Video
Title                                                           Codec   Length   Movie Size      Disc Size       Bitrate Bitrate Main Audio Track                          Secondary Audio Track
-----                                                           ------  -------  --------------  --------------  ------- ------- ------------------                        ---------------------
00008.MPLS                                                      AVC     0:42:33  7,233,933,312   48,994,056,192  22.67   16.94   LPCM 2.0
DISC INFO:
Disc Title:     King Crimson Lizard
Disc Size:      48,994,056,192 bytes
Protection:     AACS(v63)
BD-Java:        Yes
BDInfo:         0.5.8.1 (compatible layout created by DVDFab 9.3.1.2)
PLAYLIST REPORT:
Name:                   00008.MPLS
Length:                 0:42:33.050 (h:m:s.ms)
Size:                   7,233,933,312 bytes
Total Bitrate:          22.67 Mbps
VIDEO:
Codec                   Bitrate             Description
-----                   -------             -----------
MPEG-4 AVC Video        16942 kbps          1080p / 23.976 fps / 16:9 / High Profile 4.1
AUDIO:
Codec                           Language        Bitrate         Description
-----                           --------        -------         -----------
LPCM Audio                      English         4608 kbps       2.0 / 96 kHz / 4608 kbps / 24-bit
FILES:
Name            Time In         Length          Size            Total Bitrate
----            -------         ------          ----            -------------
00008.M2TS      0:00:00.000     0:42:33.050     7,233,933,312   22,667 kbps
CHAPTERS:
Number          Time In         Length          Avg Video Rate  Max 1-Sec Rate  Max 1-Sec Time  Max 5-Sec Rate  Max 5-Sec Time  Max 10Sec Rate  Max 10Sec Time  Avg Frame Size  Max Frame Size  Max Frame Time
------          -------         ------          --------------  --------------  --------------  --------------  --------------  --------------  --------------  --------------  --------------  --------------
1               0:00:00.000     0:06:30.973     16,738 kbps     37,551 kbps     0:00:04.462     20,248 kbps     0:00:04.379     18,729 kbps     0:00:04.379     87,250 bytes    838,377 bytes   0:00:07.882
2               0:06:30.973     0:05:37.837     16,969 kbps     21,656 kbps     0:12:07.810     17,897 kbps     0:12:03.806     17,451 kbps     0:11:58.801     88,482 bytes    833,730 bytes   0:06:36.979
3               0:12:08.811     0:04:20.218     16,980 kbps     23,090 kbps     0:16:28.028     18,209 kbps     0:16:24.024     17,611 kbps     0:16:19.019     88,530 bytes    834,299 bytes   0:12:19.822
4               0:16:29.029     0:02:46.249     16,973 kbps     22,699 kbps     0:19:14.278     18,089 kbps     0:19:10.274     17,511 kbps     0:19:05.269     88,490 bytes    834,682 bytes   0:16:35.035
5               0:19:15.279     0:23:17.771     16,981 kbps     31,699 kbps     0:42:28.504     26,377 kbps     0:42:24.500     21,777 kbps     0:42:19.537     88,535 bytes    891,286 bytes   0:42:25.668
STREAM DIAGNOSTICS:
File            PID             Type            Codec           Language                Seconds                 Bitrate                 Bytes           Packets
----            ---             ----            -----           --------                --------------          --------------          -------------   -----
00008.M2TS      4113 (0x1011)   0x1B            AVC                                     2553.01                 16942.3                 5,406,734,776   29,421,372
00008.M2TS      4352 (0x1100)   0x80            LPCM            eng (English)           2553.07                 4608                    1,472,610,776   8,169,824
QUICK SUMMARY:
Disc Title: King Crimson LizardDisc Size: 48,994,056,192 bytesProtection: AACS(v63)BD-Java: YesPlaylist: 00008.MPLSSize: 7,233,933,312 bytesLength: 0:42:33.050Total Bitrate: 22.67 MbpsVideo: MPEG-4 AVC Video / 16942 kbps / 1080p / 23.976 fps / 16:9 / High Profile 4.1Audio: English / LPCM Audio / 2.0 / 96 kHz / 4608 kbps / 24-bit
********************PLAYLIST: 00006.MPLS********************
Total   Video
Title                                                           Codec   Length   Movie Size      Disc Size       Bitrate Bitrate Main Audio Track                          Secondary Audio Track
-----                                                           ------  -------  --------------  --------------  ------- ------- ------------------                        ---------------------
00006.MPLS                                                      AVC     0:29:34  4,971,964,416   48,994,056,192  22.42   16.70   LPCM 2.0
DISC INFO:
Disc Title:     King Crimson Lizard
Disc Size:      48,994,056,192 bytes
Protection:     AACS(v63)
BD-Java:        Yes
BDInfo:         0.5.8.1 (compatible layout created by DVDFab 9.3.1.2)
PLAYLIST REPORT:
Name:                   00006.MPLS
Length:                 0:29:34.481 (h:m:s.ms)
Size:                   4,971,964,416 bytes
Total Bitrate:          22.42 Mbps
VIDEO:
Codec                   Bitrate             Description
-----                   -------             -----------
MPEG-4 AVC Video        16701 kbps          1080p / 23.976 fps / 16:9 / High Profile 4.1
AUDIO:
Codec                           Language        Bitrate         Description
-----                           --------        -------         -----------
LPCM Audio                      English         4608 kbps       2.0 / 96 kHz / 4608 kbps / 24-bit
FILES:
Name            Time In         Length          Size            Total Bitrate
----            -------         ------          ----            -------------
00006.M2TS      0:00:00.000     0:29:34.481     4,971,964,416   22,415 kbps
CHAPTERS:
Number          Time In         Length          Avg Video Rate  Max 1-Sec Rate  Max 1-Sec Time  Max 5-Sec Rate  Max 5-Sec Time  Max 10Sec Rate  Max 10Sec Time  Avg Frame Size  Max Frame Size  Max Frame Time
------          -------         ------          --------------  --------------  --------------  --------------  --------------  --------------  --------------  --------------  --------------  --------------
1               0:00:00.000     0:00:42.000     15,379 kbps     35,648 kbps     0:00:04.421     19,163 kbps     0:00:04.462     17,960 kbps     0:00:04.462     80,102 bytes    831,018 bytes   0:00:12.887
2               0:00:42.000     0:06:30.390     16,731 kbps     17,312 kbps     0:07:10.471     16,858 kbps     0:07:06.467     16,803 kbps     0:07:01.462     87,223 bytes    831,723 bytes   0:00:49.007
3               0:07:12.390     0:00:29.028     16,742 kbps     17,704 kbps     0:07:12.557     16,883 kbps     0:07:12.557     16,789 kbps     0:07:12.557     87,285 bytes    832,612 bytes   0:07:41.419
4               0:07:41.419     0:02:22.183     16,773 kbps     20,103 kbps     0:10:02.602     17,544 kbps     0:09:58.598     17,140 kbps     0:09:53.593     87,476 bytes    833,141 bytes   0:10:03.561
5               0:10:03.603     0:02:09.129     16,692 kbps     17,399 kbps     0:12:10.813     16,837 kbps     0:12:06.809     16,766 kbps     0:12:01.804     87,027 bytes    833,273 bytes   0:10:29.628
6               0:12:12.732     0:00:56.598     16,764 kbps     21,733 kbps     0:13:08.329     17,712 kbps     0:13:04.325     17,206 kbps     0:12:59.320     87,402 bytes    828,992 bytes   0:13:09.330
7               0:13:09.330     0:01:57.367     16,777 kbps     21,869 kbps     0:15:05.696     17,802 kbps     0:15:01.692     17,277 kbps     0:14:56.687     87,472 bytes    832,303 bytes   0:13:19.340
8               0:15:06.697     0:03:12.066     16,746 kbps     22,879 kbps     0:18:17.763     17,984 kbps     0:18:13.759     17,368 kbps     0:18:08.754     87,307 bytes    832,268 bytes   0:18:17.888
9               0:18:18.764     0:01:06.775     16,738 kbps     22,332 kbps     0:19:24.538     17,812 kbps     0:19:20.534     17,275 kbps     0:19:15.529     87,268 bytes    831,889 bytes   0:19:25.539
10              0:19:25.539     0:01:43.061     16,689 kbps     23,003 kbps     0:21:07.599     17,960 kbps     0:21:03.595     17,346 kbps     0:20:58.590     87,011 bytes    831,472 bytes   0:20:28.602
11              0:21:08.600     0:03:29.500     16,722 kbps     22,321 kbps     0:24:37.100     17,870 kbps     0:24:33.096     17,273 kbps     0:24:28.091     87,181 bytes    833,778 bytes   0:21:24.616
12              0:24:38.101     0:02:35.780     16,752 kbps     22,301 kbps     0:27:12.881     17,843 kbps     0:27:08.877     17,312 kbps     0:27:03.872     87,339 bytes    832,126 bytes   0:24:53.116
13              0:27:13.882     0:01:33.384     16,758 kbps     24,454 kbps     0:28:46.433     18,263 kbps     0:28:42.429     17,482 kbps     0:28:37.424     87,331 bytes    831,858 bytes   0:27:25.894
14              0:28:47.267     0:00:47.213     16,556 kbps     26,681 kbps     0:29:33.062     17,983 kbps     0:29:29.058     17,366 kbps     0:29:24.053     86,393 bytes    832,361 bytes   0:29:32.312
STREAM DIAGNOSTICS:
File            PID             Type            Codec           Language                Seconds                 Bitrate                 Bytes           Packets
----            ---             ----            -----           --------                --------------          --------------          -------------   -----
00006.M2TS      4113 (0x1011)   0x1B            AVC                                     1774.44                 16701.4                 3,704,446,472   20,157,841
00006.M2TS      4352 (0x1100)   0x80            LPCM            eng (English)           1774.48                 4608                    1,023,522,948   5,678,352
QUICK SUMMARY:
Disc Title: King Crimson LizardDisc Size: 48,994,056,192 bytesProtection: AACS(v63)BD-Java: YesPlaylist: 00006.MPLSSize: 4,971,964,416 bytesLength: 0:29:34.481Total Bitrate: 22.42 MbpsVideo: MPEG-4 AVC Video / 16701 kbps / 1080p / 23.976 fps / 16:9 / High Profile 4.1Audio: English / LPCM Audio / 2.0 / 96 kHz / 4608 kbps / 24-bit
********************PLAYLIST: 00001.MPLS********************
Total   Video
Title                                                           Codec   Length   Movie Size      Disc Size       Bitrate Bitrate Main Audio Track                          Secondary Audio Track
-----                                                           ------  -------  --------------  --------------  ------- ------- ------------------                        ---------------------
00001.MPLS                                                      AVC     0:01:10  84,787,200      48,994,056,192  9.68    9.21
DISC INFO:
Disc Title:     King Crimson Lizard
Disc Size:      48,994,056,192 bytes
Protection:     AACS(v63)
BD-Java:        Yes
BDInfo:         0.5.8.1 (compatible layout created by DVDFab 9.3.1.2)
PLAYLIST REPORT:
Name:                   00001.MPLS
Length:                 0:01:10.070 (h:m:s.ms)
Size:                   84,787,200 bytes
Total Bitrate:          9.68 Mbps
VIDEO:
Codec                   Bitrate             Description
-----                   -------             -----------
MPEG-4 AVC Video        9212 kbps           1080p / 23.976 fps / 16:9 / High Profile 4.1
FILES:
Name            Time In         Length          Size            Total Bitrate
----            -------         ------          ----            -------------
00001.M2TS      0:00:00.000     0:01:10.070     84,787,200      9,680 kbps
CHAPTERS:
Number          Time In         Length          Avg Video Rate  Max 1-Sec Rate  Max 1-Sec Time  Max 5-Sec Rate  Max 5-Sec Time  Max 10Sec Rate  Max 10Sec Time  Avg Frame Size  Max Frame Size  Max Frame Time
------          -------         ------          --------------  --------------  --------------  --------------  --------------  --------------  --------------  --------------  --------------  --------------
1               0:00:00.000     0:00:07.507     4,120 kbps      17,425 kbps     0:00:05.255     6,111 kbps      0:00:02.460     0 kbps          0:00:00.000     21,363 bytes    787,896 bytes   0:00:07.507
2               0:00:07.507     0:01:00.060     9,929 kbps      11,868 kbps     0:00:10.427     10,844 kbps     0:00:07.507     10,645 kbps     0:00:07.507     51,767 bytes    923,892 bytes   0:01:07.567
3               0:01:07.567     0:00:02.502     7,492 kbps      8,848 kbps      0:01:08.943     0 kbps          0:00:00.000     0 kbps          0:00:00.000     37,737 bytes    928,379 bytes   0:01:09.569
STREAM DIAGNOSTICS:
File            PID             Type            Codec           Language                Seconds                 Bitrate                 Bytes           Packets
----            ---             ----            -----           --------                --------------          --------------          -------------   -----
00001.M2TS      4113 (0x1011)   0x1B            AVC                                     70.03                   9212.09                 80,638,347      439,234
QUICK SUMMARY:
Disc Title: King Crimson LizardDisc Size: 48,994,056,192 bytesProtection: AACS(v63)BD-Java: YesPlaylist: 00001.MPLSSize: 84,787,200 bytesLength: 0:01:10.070Total Bitrate: 9.68 MbpsVideo: MPEG-4 AVC Video / 9212 kbps / 1080p / 23.976 fps / 16:9 / High Profile 4.1
********************PLAYLIST: 00000.MPLS********************
Total   Video
Title                                                           Codec   Length   Movie Size      Disc Size       Bitrate Bitrate Main Audio Track                          Secondary Audio Track
-----                                                           ------  -------  --------------  --------------  ------- ------- ------------------                        ---------------------
00000.MPLS                                                      AVC     0:00:30  28,778,496      48,994,056,192  7.67    5.52    LPCM 2.0
DISC INFO:
Disc Title:     King Crimson Lizard
Disc Size:      48,994,056,192 bytes
Protection:     AACS(v63)
BD-Java:        Yes
BDInfo:         0.5.8.1 (compatible layout created by DVDFab 9.3.1.2)
PLAYLIST REPORT:
Name:                   00000.MPLS
Length:                 0:00:30.030 (h:m:s.ms)
Size:                   28,778,496 bytes
Total Bitrate:          7.67 Mbps
VIDEO:
Codec                   Bitrate             Description
-----                   -------             -----------
MPEG-4 AVC Video        5519 kbps           1080p / 23.976 fps / 16:9 / High Profile 4.1
AUDIO:
Codec                           Language        Bitrate         Description
-----                           --------        -------         -----------
LPCM Audio                      English         1536 kbps       2.0 / 48 kHz / 1536 kbps / 16-bit
FILES:
Name            Time In         Length          Size            Total Bitrate
----            -------         ------          ----            -------------
00000.M2TS      0:00:00.000     0:00:30.030     28,778,496      7,666 kbps
CHAPTERS:
Number          Time In         Length          Avg Video Rate  Max 1-Sec Rate  Max 1-Sec Time  Max 5-Sec Rate  Max 5-Sec Time  Max 10Sec Rate  Max 10Sec Time  Avg Frame Size  Max Frame Size  Max Frame Time
------          -------         ------          --------------  --------------  --------------  --------------  --------------  --------------  --------------  --------------  --------------  --------------
1               0:00:00.000     0:00:30.030     5,526 kbps      21,869 kbps     0:00:15.014     12,706 kbps     0:00:21.020     11,334 kbps     0:00:14.013     28,735 bytes    845,899 bytes   0:00:18.059
STREAM DIAGNOSTICS:
File            PID             Type            Codec           Language                Seconds                 Bitrate                 Bytes           Packets
----            ---             ----            -----           --------                --------------          --------------          -------------   -----
00000.M2TS      4113 (0x1011)   0x1B            AVC                                     29.99                   5519.3                  20,689,287      112,823
00000.M2TS      4352 (0x1100)   0x80            LPCM            eng (English)           30.02                   1536                    5,789,784       36,036
QUICK SUMMARY:
Disc Title: King Crimson LizardDisc Size: 48,994,056,192 bytesProtection: AACS(v63)BD-Java: YesPlaylist: 00000.MPLSSize: 28,778,496 bytesLength: 0:00:30.030Total Bitrate: 7.67 MbpsVideo: MPEG-4 AVC Video / 5519 kbps / 1080p / 23.976 fps / 16:9 / High Profile 4.1Audio: English / LPCM Audio / 2.0 / 48 kHz / 1536 kbps / 16-bit

Состав

Bass Guitar, Vocals – Gordon Haskell
Drums – Andy McCulloch
Flute, Saxophone – Mel Collins
Guitar, Mellotron, Keyboards, Sounds [Devices] – Robert Fripp
Piano, Electric Piano – Keith Tippett
Producer, Written-By – Peter Sinfield, Robert Fripp
Trombone – Nick Evans
Vocals – Jon Anderson (tracks: 5)
Words By – Peter Sinfield

Скриншоты меню


Об альбоме (сборнике)

King Crimson - Sailors’ Tales (40 Anniversary Edition)
4 × Blu-ray, Blu-ray Audio, Stereo, Multichannel
3 blu-ray discs contain the main studio albums in 5.1 Surround Sound, recent stereo editions mixed by Steven Wilson and Robert Fripp, 30th anniversary masters of the original stereo albums mixes (all in 24/96 hi-res), plus extensive additional material with each disc also featuring a complete alternate album and a further selection of additional, related studio/live material in hi-res.
* The Lizard blu-ray also contains the audition material from CDs19/20.
* The Islands blu-ray also contains the following concerts in stereo Zoom Club (4 shows), Marquee Club, Plymouth, Glasgow, Detroit all from 1971.
* The Earthbound Tour blu-ray features an expanded version of the original album, Summit Studios gig in Stereo and Quadraphonic (newly mixed), the Schizoid Men sequence from the Ladies of the Road album, 2 newly discovered concerts in hi-res stereo and every existing soundboard concert recording from the 1972 US tour: Wilmington, NYC (2 shows), Chicago (2 tracks only), Detroit, Jacksonville, Orlando, Pittsburgh, Milwaukee, Peoria, Indianapolis & Denver (2 shows). T
HRAudio.net


[torrentc.info]_t_5487878.torrent
Торрент: Зарегистрирован ·  [ 2017-12-07 21:42 ] ·  edb1f8ae8e84d8a13699790ea07b7f9e87e09dc1

254 KB

Статус: проверено
Скачан: 0 раз
Размер: 47.95 GB
Оценка: 
(Голосов: 0)
Сказали спасибо: 0  Спасибо
Похожие темы
[Профиль]    [ЛС]
Показать сообщения:    
Ответить на тему

Текущее время: Сегодня 03:58

Часовой пояс: GMT + 7



Вы не можете начинать темы
Вы не можете отвечать на сообщения
Вы не можете редактировать свои сообщения
Вы не можете удалять свои сообщения
Вы не можете голосовать в опросах
Вы не можете прикреплять файлы к сообщениям
Вы можете скачивать файлы