(R&B/Soul, Alternative) [CD] Lady Rizo - Indigo - 2017, FLAC (tracks+.cue), lossless

Ответить на тему
Статистика раздачи [Обновить пиров]
Размер:  223 MB   |    Зарегистрирован:  9 месяцев 13 дней   |    Скачан:  0 раз

Полного источника не было: Никогда

 
   
 
 
 
Автор Сообщение

torrentc.info

Создавать темы 05-Дек-2017 20:43

[Цитировать]

Lady Rizo / Indigo
Жанр: R&B/Soul, Alternative
Носитель: CD
Год издания: 2017
Издатель (лейбл): Lady Rizo Entertainment
Страна исполнителя (группы): USA
Аудиокодек: FLAC (*.flac)
Тип рипа: tracks+.cue
Битрейт аудио: lossless
Продолжительность: 39:08
Источник (релизер): jonesy
Наличие сканов в содержимом раздачи: нет
Треклист:
01. Hit of You (04:14)
02. The Ghost of the Chateau Marmont (03:19)
03. Sometimes the Sky's Too Bright (02:18)
04. Bittersweet (04:20)
05. It's Alright (05:13)
06. Lilac Wine (05:13)
07. Gypsy in Me (03:50)
08. Loving in Colour (03:15)
09. Albatross (04:07)
10. Under (03:19)

Лог создания рипа

Exact Audio Copy V1.3 from 2. September 2016
EAC extraction logfile from 25. November 2017, 14:32
Lady Rizo / Indigo
Used drive : PLDS DVD-RW DA8AESH Adapter: 1 ID: 0
Read mode : SecureUtilize accurate stream : YesDefeat audio cache : YesMake use of C2 pointers : No
Read offset correction : 6Overread into Lead-In and Lead-Out : NoFill up missing offset samples with silence : YesDelete leading and trailing silent blocks : NoNull samples used in CRC calculations : YesUsed interface : Native Win32 interface for Win NT & 2000Gap handling : Appended to previous track
Used output format : User Defined EncoderSelected bitrate : 1024 kBit/sQuality : HighAdd ID3 tag : NoCommand line compressor : C:\Program Files (x86)\Exact Audio Copy\Flac\flac.exeAdditional command line options : -8 -e -p -V -T "ARTIST=%artist%" -T "TITLE=%title%" -T "ALBUM=%albumtitle%" -T "DATE=%year%" -T "TRACKNUMBER=%tracknr%" -T "GENRE=%genre%" -T "PERFORMER=%albuminterpret%" -T "COMPOSER=%composer%" %haslyrics%--tag-from-file=LYRICS="%lyricsfile%"%haslyrics% -T "ALBUMARTIST=%albumartist%" -T "DISCNUMBER=%cdnumber%" -T "TOTALDISCS=%totalcds%" -T "TOTALTRACKS=%numtracks%" -T "COMMENT=%comment%" %source% -o %dest%
TOC of the extracted CD
Track | Start | Length | Start sector | End sector --------------------------------------------------------- 1 | 0:00.00 | 4:14.69 | 0 | 19118 2 | 4:14.69 | 3:19.00 | 19119 | 34043 3 | 7:33.69 | 2:18.31 | 34044 | 44424 4 | 9:52.25 | 4:20.04 | 44425 | 63928 5 | 14:12.29 | 5:13.48 | 63929 | 87451 6 | 19:26.02 | 5:13.44 | 87452 | 110970 7 | 24:39.46 | 3:50.31 | 110971 | 128251 8 | 28:30.02 | 3:15.36 | 128252 | 142912 9 | 31:45.38 | 4:07.65 | 142913 | 161502 10 | 35:53.28 | 3:19.46 | 161503 | 176473 11 | 39:12.74 | 0:18.60 | 176474 | 177883
Track 1
Filename C:\EAC Rips\[2017] Lady Rizo - Indigo (FLAC)\01 Hit Of You.wav
Pre-gap length 0:00:02.00
Peak level 96.6 % Extraction speed 1.1 X Track quality 100.0 % Test CRC D8CD259C Copy CRC D8CD259C Track not present in AccurateRip database Copy OK
Track 2
Filename C:\EAC Rips\[2017] Lady Rizo - Indigo (FLAC)\02 The Ghost Of The Chateau Marmont.wav
Peak level 96.6 % Extraction speed 1.2 X Track quality 100.0 % Test CRC 71A06BDD Copy CRC 71A06BDD Track not present in AccurateRip database Copy OK
Track 3
Filename C:\EAC Rips\[2017] Lady Rizo - Indigo (FLAC)\03 Sometimes The Sky's Too Bright.wav
Peak level 96.6 % Extraction speed 1.0 X Track quality 99.9 % Test CRC 2D7372D7 Copy CRC 2D7372D7 Track not present in AccurateRip database Copy OK
Track 4
Filename C:\EAC Rips\[2017] Lady Rizo - Indigo (FLAC)\04 Bittersweet.wav
Peak level 96.6 % Extraction speed 1.4 X Track quality 100.0 % Test CRC EFD56FF2 Copy CRC EFD56FF2 Track not present in AccurateRip database Copy OK
Track 5
Filename C:\EAC Rips\[2017] Lady Rizo - Indigo (FLAC)\05 It's Alright.wav
Peak level 96.6 % Extraction speed 1.6 X Track quality 100.0 % Test CRC 02250035 Copy CRC 02250035 Track not present in AccurateRip database Copy OK
Track 6
Filename C:\EAC Rips\[2017] Lady Rizo - Indigo (FLAC)\06 Lilac Wine.wav
Peak level 96.6 % Extraction speed 1.7 X Track quality 100.0 % Test CRC 0002D0F9 Copy CRC 0002D0F9 Track not present in AccurateRip database Copy OK
Track 7
Filename C:\EAC Rips\[2017] Lady Rizo - Indigo (FLAC)\07 Gypsy In Me.wav
Peak level 96.6 % Extraction speed 1.5 X Track quality 99.9 % Test CRC 109E1483 Copy CRC 109E1483 Track not present in AccurateRip database Copy OK
Track 8
Filename C:\EAC Rips\[2017] Lady Rizo - Indigo (FLAC)\08 Loving In Colour.wav
Peak level 96.6 % Extraction speed 1.7 X Track quality 100.0 % Test CRC 9F63FA80 Copy CRC 9F63FA80 Track not present in AccurateRip database Copy OK
Track 9
Filename C:\EAC Rips\[2017] Lady Rizo - Indigo (FLAC)\09 Albatross.wav
Peak level 96.6 % Extraction speed 1.9 X Track quality 100.0 % Test CRC D56A0418 Copy CRC D56A0418 Track not present in AccurateRip database Copy OK
Track 10
Filename C:\EAC Rips\[2017] Lady Rizo - Indigo (FLAC)\10 Under.wav
Peak level 96.6 % Extraction speed 1.9 X Track quality 100.0 % Test CRC 3B71B690 Copy CRC 3B71B690 Track not present in AccurateRip database Copy OK
Track 11
Filename C:\EAC Rips\[2017] Lady Rizo - Indigo (FLAC)\11 ~Hidden Track~.wav
Peak level 46.8 % Extraction speed 0.7 X Track quality 100.0 % Test CRC 85D31865 Copy CRC 85D31865 Track not present in AccurateRip database Copy OK
None of the tracks are present in the AccurateRip database
No errors occurred
End of status report
---- CUETools DB Plugin V2.1.6
[CTDB TOCID: QktJQTicZZWmejyjicVPdDcgNh4-] disk not present in databaseSubmit result: QktJQTicZZWmejyjicVPdDcgNh4- has been uploaded
==== Log checksum CD060DD24727E2E134DE1ED27879B2D2D6FB68A45AF339A4EEDC432B0274A838 ====

Содержание индексной карты (.CUE)

REM GENRE SoulREM DATE 2017REM DISCID 9509430BREM COMMENT "ExactAudioCopy v1.3"CATALOG 8882956125486PERFORMER "Lady Rizo"TITLE "Indigo"REM COMPOSER ""FILE "01 Hit Of You.wav" WAVE TRACK 01 AUDIO TITLE "Hit Of You" PERFORMER "Lady Rizo" REM COMPOSER "" ISRC USUYG1700101 INDEX 01 00:00:00FILE "02 The Ghost Of The Chateau Marmont.wav" WAVE TRACK 02 AUDIO TITLE "The Ghost Of The Chateau Marmont" PERFORMER "Lady Rizo" REM COMPOSER "" ISRC USUYG1700102 INDEX 01 00:00:00FILE "03 Sometimes The Sky's Too Bright.wav" WAVE TRACK 03 AUDIO TITLE "Sometimes The Sky's Too Bright" PERFORMER "Lady Rizo" REM COMPOSER "" ISRC USUYG1700103 INDEX 01 00:00:00FILE "04 Bittersweet.wav" WAVE TRACK 04 AUDIO TITLE "Bittersweet" PERFORMER "Lady Rizo" REM COMPOSER "" ISRC USUYG1700104 INDEX 01 00:00:00FILE "05 It's Alright.wav" WAVE TRACK 05 AUDIO TITLE "It's Alright" PERFORMER "Lady Rizo" REM COMPOSER "" ISRC USUYG1700105 INDEX 01 00:00:00FILE "06 Lilac Wine.wav" WAVE TRACK 06 AUDIO TITLE "Lilac Wine" PERFORMER "Lady Rizo" REM COMPOSER "" ISRC USUYG1700106 INDEX 01 00:00:00FILE "07 Gypsy In Me.wav" WAVE TRACK 07 AUDIO TITLE "Gypsy In Me" PERFORMER "Lady Rizo" REM COMPOSER "" ISRC USUYG1700107 INDEX 01 00:00:00FILE "08 Loving In Colour.wav" WAVE TRACK 08 AUDIO TITLE "Loving In Colour" PERFORMER "Lady Rizo" REM COMPOSER "" ISRC USUYG1700108 INDEX 01 00:00:00FILE "09 Albatross.wav" WAVE TRACK 09 AUDIO TITLE "Albatross" PERFORMER "Lady Rizo" REM COMPOSER "" ISRC USUYG1700109 INDEX 01 00:00:00FILE "10 Under.wav" WAVE TRACK 10 AUDIO TITLE "Under" PERFORMER "Lady Rizo" REM COMPOSER "" ISRC USUYG1700110 INDEX 01 00:00:00FILE "11 ~Hidden Track~.wav" WAVE TRACK 11 AUDIO TITLE "~Hidden Track~" PERFORMER "Lady Rizo" REM COMPOSER "" ISRC USUYG1700111 INDEX 01 00:00:00


[torrentc.info]_t_5485465.torrent
Торрент: Зарегистрирован ·  [ 2017-12-05 20:42 ] ·  ab1c4ff98b2b0128c5f5ae311a12792f06b1e92c

36 KB

Статус: проверено
Скачан: 0 раз
Размер: 223 MB
Оценка: 
(Голосов: 0)
Сказали спасибо: 0  Спасибо
Похожие темы
[Профиль]    [ЛС]
Показать сообщения:    
Ответить на тему

Текущее время: Сегодня 19:56

Часовой пояс: GMT + 7



Вы не можете начинать темы
Вы не можете отвечать на сообщения
Вы не можете редактировать свои сообщения
Вы не можете удалять свои сообщения
Вы не можете голосовать в опросах
Вы не можете прикреплять файлы к сообщениям
Вы можете скачивать файлы