Босиком по парку (Александр Покровский, Юрий Бурэ) [1991, лирическая комедия, VHSRip] Курский драматический театр им. А.С.Пушкина

Ответить на тему
Статистика раздачи [Обновить пиров]
Размер:  1.45 GB   |    Зарегистрирован:  6 месяцев 20 дней   |    Скачан:  0 раз

Полного источника не было: Никогда

 
   
 
 
 
Автор Сообщение

torrentc.info

Создавать темы 27-Ноя-2017 11:54

[Цитировать]

Босиком по парку- Название театра: Курский драматический театр им. А.С.Пушкина
Жанр: лирическая комедия
Год выхода: 1991
Продолжительность: 01:34:15-Режиссёр: Александр Покровский, Юрий Бурэ
Художник: Виллен Нестеров
Музыкальное оформление: Ильи Сакина
Перевод: Полины Мелковой-В ролях: Елена Петрова, Юрий Архангельский, Антонина Губардина, Валерий Ломако, Виталий Стенин-Описание: Лирическая комедия по пьесе классика американской драматургии Нила Саймона «Босиком по парку» это история о зарождении любви и о том, на что способен любящий человек. Именно эта пьеса принесла Саймону славу. Драматургически выверенный сюжет строится, с одной стороны, как комедия положений, с другой в пьесе есть лирический мотив, заставляющий поразмышлять о том, какое время необходимо для зарождения любви и как мало нужно, чтобы разбить отношения.
Молодожены Кори и Пол Браттеры (Елена Петрова и Юрий Архангельский) шесть дней как женаты. Она впервые покинула дом матери, он тоже только начинает самостоятельную жизнь без родителей. У нее впереди карьера домохозяйки, у него адвоката. И, как им кажется, долгая счастливая жизнь.-Доп. информация:
Фильм-спектакль «Босиком по парку» снят не только в пространстве сцены Курского драматического театра. Постановщики Юрий Бурэ и Александр Покровский используют в качестве режиссерских пауз дополнительно снятый видеоматериал. Примечательно, что почти все занятые в спектакле актеры работали только в Курском драматическом театре имени Пушкина. Увидеть их игру можно лишь в немногих записях, одна из которых фильм-спектакль «Босиком по парку» сделана в 1991 году Студией художественных программ телевидения «Телетеатр».-VHSRip с собственной видео-кассеты.- -Качество видео: VHSRip
Формат файла: AVI-Видео: 640x480 (1.33:1), 25 fps, XviD build 50 ~1996 kbps avg, 0.26 bit/pixel
Аудио: 48 kHz, MPEG Layer 3, 2 ch, ~192.00 kbps avg

MediaInfo

General
Complete name : ...:\...\...\театр\БОСИКОМ ПО ПАРКУ (ТВ-версия 1991).avi
Format : AVI
Format/Info : Audio Video Interleave
File size : 1.45 GiB
Duration : 1h 34mn
Overall bit rate : 2 199 Kbps
Writing application : VirtualDubModRus 1.5.10.2 (build 2542/release)
Writing library : VirtualDubMod build 2542/release
Video
ID : 0
Format : MPEG-4 Visual
Format profile : Simple@L3
Format settings, BVOP : No
Format settings, QPel : No
Format settings, GMC : No warppoints
Format settings, Matrix : Default (H.263)
Codec ID : XVID
Codec ID/Hint : XviD
Duration : 1h 34mn
Bit rate : 1 997 Kbps
Width : 640 pixels
Height : 480 pixels
Display aspect ratio : 4:3
Frame rate : 25.000 fps
Color space : YUV
Chroma subsampling : 4:2:0
Bit depth : 8 bits
Scan type : Progressive
Compression mode : Lossy
Bits/(Pixel*Frame) : 0.260
Stream size : 1.31 GiB (91%)
Writing library : XviD 1.2.1 (UTC 2008-12-04)
Audio
ID : 1
Format : MPEG Audio
Format version : Version 1
Format profile : Layer 3
Mode : Joint stereo
Mode extension : MS Stereo
Codec ID : 55
Codec ID/Hint : MP3
Duration : 1h 34mn
Bit rate mode : Constant
Bit rate : 192 Kbps
Channel(s) : 2 channels
Sampling rate : 48.0 KHz
Compression mode : Lossy
Stream size : 129 MiB (9%)
Alignment : Aligned on interleaves
Interleave, duration : 40 ms (1.00 video frame)
Interleave, preload duration : 504 ms
Writing library : LAME3.98
Encoding settings : -m j -V 4 -q 5 -lowpass 18.6 -b 192

Скриншот с названием постановки

Скриншоты



[torrentc.info]_t_5485509.torrent
Торрент: Зарегистрирован ·  [ 2017-11-27 11:54 ] ·  ceb14febf450473093007f526c2fc8328aba32a8

15 KB

Статус: проверено
Скачан: 0 раз
Размер: 1.45 GB
Оценка: 
(Голосов: 0)
Сказали спасибо: 0  Спасибо
Похожие темы
[Профиль]    [ЛС]
Показать сообщения:    
Ответить на тему

Текущее время: Сегодня 10:52

Часовой пояс: GMT + 7



Вы не можете начинать темы
Вы не можете отвечать на сообщения
Вы не можете редактировать свои сообщения
Вы не можете удалять свои сообщения
Вы не можете голосовать в опросах
Вы не можете прикреплять файлы к сообщениям
Вы можете скачивать файлы