(Jazz) Stan Getz - Compact Jazz - 1992, FLAC (image+.cue), lossless

Ответить на тему
Статистика раздачи [Обновить пиров]
Размер:  308 MB   |    Зарегистрирован:  9 месяцев 27 дней   |    Скачан:  0 раз

Полного источника не было: Никогда

 
   
 
 
 
Автор Сообщение

torrentc.info

Создавать темы 22-Ноя-2017 02:12

[Цитировать]

Stan Getz - Compact Jazz
Жанр: Jazz
Год выхода диска: 1992
Производитель диска: USA (Verve)
Аудио кодек: FLAC
Тип рипа: image+.cue
Битрейт аудио: lossless
Продолжительность: 0:57:57
-01. Desafinado 05:51
02. Corcovado (Quiet Nights) 05:14
03. Moonlight In Vermont 02:26
04. So Danco Samba 03:32
05. Summertime 08:14
06. One-Note Samba 03:17
07. Manha De Carnaval 05:49
08. How Insensitive 03:24
09. O Grande Amor 04:44
10. O Pato (The Duck) 02:32
11. Here's That Rainy Day 06:14
12. The Girl From Ipanema 06:36-

Персоны

Laurindo Almeida - Guitar
Ray Alonge - French Horn
Dave Bailey - Drums
Milton Banana - Drums
Raymond Beckenstein - Clarinet, Flute
Keter Betts - Bass
Luiz Bonfá - Guitar
Bob Brookmeyer - Trombone
Gary Burton - Vibraphone
Charlie Byrd - Guitar
Gene Byrd - Bass
Eddie Caine - Flute (Alto)
Jose (Bigorna) Carlos - Drums
Ron Carter - Bass
Gene Cherico - Bass
Babe Clark - Clarinet
Chick Corea - Piano
Carmen Costa - Cabassa
Willie Dennis - Trombone
Buddy Deppenschmidt - Drums
Dennis Drake - Remastering
George Duvivier - Bass
Joe Ferrante - Trumpet
Paulo Ferreira - Drums
Stan Getz - Sax (Tenor)
Astrud Gilberto - Vocals
João Gilberto - Guitar, Vocals
Bernie Glow - Trumpet
Jim Hall - Guitar
Joe Hunt - Drums
James Isaacs - Liner Notes, Sequencing
Chuck Israels - Bass
Antonio Carlos Jobim - Piano
Hank Jones - Piano
Steve Kuhn - Piano
Walter Levinsky - Clarinet
Edison Machado - Percussion
Gary McFarland - Arranger, Conductor
Claus Ogerman - Arranger, Conductor
Luis Parga - Percussion
Jose Paulo - Percussion, Tambourine
Romeo Penque - Clarinet, Sax (Baritone)
Johnny Rae - Drums
Bill Reichenbach - Drums
Gerald Sanfino - Flute
Doc Severinsen - Trumpet
Jose Soorez - Percussion
Tony Studd - Trombone
Grady Tate - Drums
Creed Taylor - Producer
Clark Terry - Trumpet
Maria Toledo - Vocals
Nick Travis - Trumpet
Mark Wilder - Remastering
Tommy Williams - Bass
Сканы внутри

LOG

Exact Audio Copy V0.99 prebeta 4 from 23. January 2008
EAC extraction logfile from 17. December 2008, 12:35
Stan Getz / Compact Jazz - Stan Getz
Used drive : TSSTcorpCDDVDW SE-S204N Adapter: 0 ID: 0
Read mode : Secure
Utilize accurate stream : Yes
Defeat audio cache : Yes
Make use of C2 pointers : No
Read offset correction : 6
Overread into Lead-In and Lead-Out : No
Fill up missing offset samples with silence : Yes
Delete leading and trailing silent blocks : No
Null samples used in CRC calculations : Yes
Used interface : Installed external ASPI interface
Used output format : User Defined Encoder
Selected bitrate : 128 kBit/s
Quality : High
Add ID3 tag : No
Command line compressor : C:\Program Files\FLAC\flac.exe
Additional command line options : -8 -V -T "ARTIST=%a" -T "TITLE=%t" -T "ALBUM=%g" -T "DATE=%y" -T "TRACKNUMBER=%n" -T "GENRE=%m" -T "COMMENT=EAC FLAC -8" %s
TOC of the extracted CD
Track | Start | Length | Start sector | End sector
---------------------------------------------------------
1 | 0:00.32 | 5:51.63 | 32 | 26419
2 | 5:52.20 | 5:14.12 | 26420 | 49981
3 | 11:06.32 | 2:26.38 | 49982 | 60969
4 | 13:32.70 | 3:32.50 | 60970 | 76919
5 | 17:05.45 | 8:14.12 | 76920 | 113981
6 | 25:19.57 | 3:17.00 | 113982 | 128756
7 | 28:36.57 | 5:49.50 | 128757 | 154981
8 | 34:26.32 | 3:24.00 | 154982 | 170281
9 | 37:50.32 | 4:44.50 | 170282 | 191631
10 | 42:35.07 | 2:32.25 | 191632 | 203056
11 | 45:07.32 | 6:14.00 | 203057 | 231106
12 | 51:21.32 | 6:36.00 | 231107 | 260806
Range status and errors
Selected range
Filename J:\TTT\Stan Getz - Compact Jazz[Torrentc]\Stan Getz - Compact Jazz - Stan Getz.wav
Peak level 97.7 %
Range quality 100.0 %
Test CRC 4B69354E
Copy CRC 4B69354E
Copy OK
No errors occurred
AccurateRip summary
Track 1 not present in database
Track 2 not present in database
Track 3 not present in database
Track 4 not present in database
Track 5 not present in database
Track 6 not present in database
Track 7 not present in database
Track 8 not present in database
Track 9 not present in database
Track 10 not present in database
Track 11 not present in database
Track 12 not present in database
None of the tracks are present in the AccurateRip database
End of status report


[torrentc.info]_t_1355357.torrent
Торрент: Зарегистрирован ·  [ 2017-11-22 02:12 ] ·  6404403524ce7c166e790a799ccf9ed4ffe2d1fc

13 KB

Статус: проверено
Скачан: 0 раз
Размер: 308 MB
Оценка: 
(Голосов: 0)
Сказали спасибо: 0  Спасибо
Похожие темы
[Профиль]    [ЛС]
Показать сообщения:    
Ответить на тему

Текущее время: Сегодня 02:29

Часовой пояс: GMT + 7



Вы не можете начинать темы
Вы не можете отвечать на сообщения
Вы не можете редактировать свои сообщения
Вы не можете удалять свои сообщения
Вы не можете голосовать в опросах
Вы не можете прикреплять файлы к сообщениям
Вы можете скачивать файлы