(Jazz) Turtle Island String Quartet - A Night in Tunisia, A Week in Detroit - 1994, FLAC (image + .cue), lossless

Ответить на тему
Статистика раздачи [Обновить пиров]
Размер:  290 MB   |    Зарегистрирован:  9 месяцев 27 дней   |    Скачан:  0 раз

Полного источника не было: Никогда

 
   
 
 
 
Автор Сообщение

torrentc.info

Создавать темы 22-Ноя-2017 01:06

[Цитировать]

Turtle Island String Quartet - A Night in Tunisia, A Week in Detroit
Страна: USA
Жанр: Jazz
Год выхода: 1994
Формат файла: FLAC (image + .cue)
Битрейт аудио: lossless
Продолжительность: 59:30
Трэклист:
1 Suite - Spider Dreams: Spider Dreams (5:25)
2 Suite - Spider Dreams: Waterfall With Blenders (7:54)
3 Interchange: Introductions (5:05)
4 Interchange: Dialogue (10:35)
5 Interchange: I Solisti (3:41)
6 Interchange: Tutti (6:10)
7 A Night in Tunisia (7:55)
8 Blue in Green/Seven Steps to Heaven (6:03)
9 Bach's Lunch (2:43)
10 Who Do You Think You Are? (3:58)
Доп. информация:
Danny Seidenberg: violin, viola
Tracy Silverman: violin
Mark Summer: cello
Darol Anger: violin, baritone violin
The Detroit Symphony Orchestra
Neeme Järvi: conductor
1994 Chandos

EAC Report

Exact Audio Copy V0.99 prebeta 4 from 23. January 2008
EAC extraction logfile from 19. February 2008, 20:27
Turtle Island String Quartet / A Night in Tunisia - A Week in Detroit (Turtle Island String Quartet, Detroit Symphony Orchestra, feat. conductor: Neeme Järvi)
Used drive : MATSHITADVD-RAM UJ-840S Adapter: 1 ID: 0
Read mode : Secure
Utilize accurate stream : Yes
Defeat audio cache : Yes
Make use of C2 pointers : No
Read offset correction : 102
Overread into Lead-In and Lead-Out : No
Fill up missing offset samples with silence : Yes
Delete leading and trailing silent blocks : No
Null samples used in CRC calculations : Yes
Used interface : Installed external ASPI interface
Used output format : User Defined Encoder
Selected bitrate : 1024 kBit/s
Quality : High
Add ID3 tag : No
Command line compressor : C:\Program Files\Exact Audio Copy\FLAC\FLAC.EXE
Additional command line options : -6 -V -T "ARTIST=%a" -T "TITLE=%t" -T "ALBUM=%g" -T "DATE=%y" -T "TRACKNUMBER=%n" -T "GENRE=%m" -T "COMMENT=%e" %s -o %d
TOC of the extracted CD
Track | Start | Length | Start sector | End sector
---------------------------------------------------------
1 | 0:00.00 | 5:25.00 | 0 | 24374
2 | 5:25.00 | 7:54.00 | 24375 | 59924
3 | 13:19.00 | 5:05.00 | 59925 | 82799
4 | 18:24.00 | 10:35.70 | 82800 | 130494
5 | 28:59.70 | 3:41.02 | 130495 | 147071
6 | 32:40.72 | 6:10.03 | 147072 | 174824
7 | 38:51.00 | 7:55.00 | 174825 | 210449
8 | 46:46.00 | 6:03.00 | 210450 | 237674
9 | 52:49.00 | 2:43.00 | 237675 | 249899
10 | 55:32.00 | 3:58.30 | 249900 | 267779
Range status and errors
Selected range
Filename C:\Documents and Settings\Igor\My Documents\Upload\Turtle Island String Quartet\Turtle Island String Quartet - A Night in Tunisia, A Week in Detroit (1994)\Turtle Island String Quartet - A Night in Tunisia, A Week in Detroit.wav
Peak level 97.7 %
Range quality 99.9 %
Copy CRC 4105FCD1
Copy OK
No errors occurred
AccurateRip summary
Track 1 not present in database
Track 2 not present in database
Track 3 not present in database
Track 4 not present in database
Track 5 not present in database
Track 6 not present in database
Track 7 not present in database
Track 8 not present in database
Track 9 not present in database
Track 10 not present in database
None of the tracks are present in the AccurateRip database
End of status report


[torrentc.info]_t_677326.torrent
Торрент: Зарегистрирован ·  [ 2017-11-22 01:06 ] ·  114283eb3055754ff5693cff9b88822a64f78efe

12 KB

Статус: проверено
Скачан: 0 раз
Размер: 290 MB
Оценка: 
(Голосов: 0)
Сказали спасибо: 0  Спасибо
Похожие темы
[Профиль]    [ЛС]
Показать сообщения:    
Ответить на тему

Текущее время: Сегодня 02:57

Часовой пояс: GMT + 7



Вы не можете начинать темы
Вы не можете отвечать на сообщения
Вы не можете редактировать свои сообщения
Вы не можете удалять свои сообщения
Вы не можете голосовать в опросах
Вы не можете прикреплять файлы к сообщениям
Вы можете скачивать файлы