Доктор Живаго (Борис Мильграм) [2007, музыкальная фантазия, SATRip] Пермский академический Театр-Театр

Ответить на тему
Статистика раздачи [Обновить пиров]
Размер:  2.18 GB   |    Зарегистрирован:  1 год   |    Скачан:  0 раз

Полного источника не было: Никогда

 
   
 
 
 
Автор Сообщение

torrentc.info

Создавать темы 18-Ноя-2017 18:54

[Цитировать]

Доктор Живаго Название театра: Пермский академический Театр-Театр.
Год выхода: 2007.
Жанр: музыкальная фантазия.
Продолжительность: 02:45:38.
Режиссер-постановщик и автор идеи: Борис Мильграм.
Действующие лица и исполнители:
Поэт - Андрей Гарсиа,
Доктор Юрий Живаго - Вячеслав Чуистов,
Тоня Громеко - Ирина Максимкина,
Лара Гишар - Анна Сырчикова, Ольга Пудова,
Амалия Гишар, мать Лары - заслуженная артистка России Елена Старостина,
Павел Антипов, Стрельников - Дмитрий Васёв,
Виктор Ипполитович Комаровский - Анатолий Смоляков, заслуженный артист России Владимир Сырчиков,
Император Николай II - Алексей Шумков,
Приват-доцент - заслуженный артист России Олег Выходов,
Учитель словесности - Сергей Семериков,
Приятель - Илья Линович,
Первый мужик - заслуженный артист России Валентин Белоусов,
Мужик - Андрей Дюженков,
Студент - Александр Сизиков,
Трибун - Михаил Орлов.
Массовые сцены - артисты театра.
Оркестр Пермского академического Театра-Театра.
В спектакле занят детский хор музыкального театра "Орфей".
О спектакле:
Постановка «Доктора Живаго» в Перми неслучайна. Борис Пастернак бывал в городе в 1916 году и, как утверждают исследователи творчества писателя, именно Пермь стала прообразом романного Юрятина. В этой музыкальной истории много любви - счастливой и несчастной, юношеской и зрелой, чистой и порочной. Много судьбы - простой человеческой судьбы, когда человек полагает, а жизнь располагает. Много жизни, представленной в ярких сценических образах театра. И как глобален роман Пастернака, так глобально и театральное представление. В спектакле занята вся труппа театра, детский хор, оркестр. На сцене установлено 12 тонн декораций. «Доктор Живаго» репетировался более года. И все для того, чтобы зритель, затаив дыхание, мог три часа следить за тем, как герои, потерявшись во времени, к финалу находят друг друга.
Дополнительная информация:
Страна: Россия .
Выпущено: Пермский академический Театр-Театр, © Телеканал "Театр".
Композитор: Александр Журбин (Москва).
Автор либретто: Михаил Бартенев (Москва).
Балетмейстер: Николай Реутов (Москва).
Художник-сценограф: Александр Горенштейн (Израиль).
Художник по костюмам: Фагиля Сельская (Москва).
Дирижер: Петр Юрков.
Музыкальный руководитель: заслуженный работник культуры Татьяна Виноградова.
Художественный руководитель: Борис Мильграм.
Главный режиссер театра: Владимир Золотарь.
Премьера спектакля состоялась 30 декабря 2006 года.

О спектакле.

Рип sharky.

Качество видео:...SATRip
Формат файла:.................AVI
Видео:..704x464 (1.52:1), 25 fps, DivX Codec 4.x ~1747 kbps avg, 0.21 bit/pixel
Аудио:..44.100 kHz, MPEG Layer 3, 2 ch, ~128.00 kbps avg

Отчет Media Info

General
Complete name : Doktor.Zhivago_Permskij.akademi4eskij.Teatr-Teatr.2007.DivX.WEB-DLRip.fenixclub.avi
Format : AVI
Format/Info : Audio Video Interleave
Format profile : OpenDML
File size : 2.18 GiB
Duration : 2h 45mn
Overall bit rate : 1 882 Kbps
Video
ID : 0
Format : MPEG-4 Visual
Format settings, BVOP : 1
Format settings, QPel : No
Format settings, GMC : No warppoints
Format settings, Matrix : Default (H.263)
Codec ID : DX50
Codec ID/Hint : DivX 5
Duration : 2h 45mn
Bit rate : 1 742 Kbps
Width : 704 pixels
Height : 464 pixels
Display aspect ratio : 3:2
Frame rate : 25.000 fps
Color space : YUV
Chroma subsampling : 4:2:0
Bit depth : 8 bits
Scan type : Progressive
Compression mode : Lossy
Bits/(Pixel*Frame) : 0.213
Stream size : 2.02 GiB (93%)
Writing library : DivX 3013
Audio
ID : 1
Format : MPEG Audio
Format version : Version 1
Format profile : Layer 3
Codec ID : 55
Codec ID/Hint : MP3
Duration : 2h 45mn
Bit rate mode : Constant
Bit rate : 128 Kbps
Channel(s) : 2 channels
Sampling rate : 44.1 KHz
Compression mode : Lossy
Stream size : 152 MiB (7%)
Alignment : Split accross interleaves
Interleave, duration : 40 ms (1.00 video frame)
Interleave, preload duratio : 500 ms.

Скриншоты



[torrentc.info]_t_5478415.torrent
Торрент: Зарегистрирован ·  [ 2017-11-18 18:54 ] ·  2f881a1da14d0d77db50dd16964cf8d9bc538497

11 KB

Статус: проверено
Скачан: 0 раз
Размер: 2.18 GB
Оценка: 
(Голосов: 0)
Сказали спасибо: 0  Спасибо
Похожие темы
[Профиль]    [ЛС]
Показать сообщения:    
Ответить на тему

Текущее время: Сегодня 22:20

Часовой пояс: GMT + 7



Вы не можете начинать темы
Вы не можете отвечать на сообщения
Вы не можете редактировать свои сообщения
Вы не можете удалять свои сообщения
Вы не можете голосовать в опросах
Вы не можете прикреплять файлы к сообщениям
Вы можете скачивать файлы