Ручьи, где плещется форель (Галина Самойлова) [1996, романтическая мелодрама, телеспектакль, SATRip]

Ответить на тему
Статистика раздачи [Обновить пиров]
Размер:  357 MB   |    Зарегистрирован:  1 год   |    Скачан:  0 раз

Полного источника не было: Никогда

 
   
 
 
 
Автор Сообщение

torrentc.info

Создавать темы 18-Ноя-2017 18:54

[Цитировать]

Ручьи, где плещется форель Год выхода: 1996.
Жанр: романтическая мелодрама, телеспектакль.
Продолжительность: 00:25:28.
Режиссеры: Галина Самойлова.
В ролях:
Марина Есипенко, Валентин Никулин, Владимир Стеклов.
О спектакле:
По рассказу Константина Паустовского.
Романтическая история французского генерала, который во время короткой передышки на фронте оказался в маленькой горной деревушке.
Здесь он повстречал замечательную певицу Мари Черни. Эта встреча круто изменила жизнь генерала.

Дополнительная информация:
Страна: Россия .
Выпущено: ВГТРК.
Автор: Константин Паустовский.
Автор инсценировки и режиссер: Галина Самойлова.
Оператор-постановщик: Юрий Назаров.
Композитор: Тарас Буевский.
Художник по костюмам: Галина Кириченко.
Художник по свету: Анатолий Акимов, Владимир Жуков.
В спектакле звучит "Аве Мария" Каччини в исполнении Ирины Архиповой.


Качество видео:...SATRip
Формат файла:.................AVI
Видео:..704x528 (1.33:1), 25 fps, XviD MPEG-4 ~1822 kbps avg, 0.20 bit/pixel
Аудио:..48 kHz, MPEG Layer 3, 2 ch, ~128.00 kbps avg

Отчет Media Info

General
Complete name : Ruch'i.gde.plewetsya.forel'.1996.XviD.SATRip.fenixclub.avi
Format : AVI
Format/Info : Audio Video Interleave
File size : 357 MiB
Duration : 25mn 27s
Overall bit rate : 1 961 Kbps
Writing application : VirtualDubModRus 1.5.10.2 (build 2542/release)
Writing library : VirtualDub build 32842/release
Video
ID : 0
Format : MPEG-4 Visual
Format profile : Advanced Simple@L5
Format settings, BVOP : 2
Format settings, QPel : No
Format settings, GMC : No warppoints
Format settings, Matrix : Default (MPEG)
Codec ID : XVID
Codec ID/Hint : XviD
Duration : 25mn 27s
Bit rate : 1 823 Kbps
Width : 704 pixels
Height : 528 pixels
Display aspect ratio : 4:3
Frame rate : 25.000 fps
Color space : YUV
Chroma subsampling : 4:2:0
Bit depth : 8 bits
Scan type : Progressive
Compression mode : Lossy
Bits/(Pixel*Frame) : 0.196
Stream size : 332 MiB (93%)
Writing library : XviD 73
Audio
ID : 1
Format : MPEG Audio
Format version : Version 1
Format profile : Layer 3
Mode : Joint stereo
Mode extension : MS Stereo
Codec ID : 55
Codec ID/Hint : MP3
Duration : 25mn 27s
Bit rate mode : Constant
Bit rate : 128 Kbps
Channel(s) : 2 channels
Sampling rate : 48.0 KHz
Compression mode : Lossy
Stream size : 23.3 MiB (7%)
Alignment : Split accross interleaves
Interleave, duration : 40 ms (1.00 video frame)
Interleave, preload duratio : 500 ms
Writing library : LAME3.98.2

Скриншоты



[torrentc.info]_t_5478736.torrent
Торрент: Зарегистрирован ·  [ 2017-11-18 18:54 ] ·  4b1d2a9f8b1617b028045561af6aebf77e6f5e76

14 KB

Статус: проверено
Скачан: 0 раз
Размер: 357 MB
Оценка: 
(Голосов: 0)
Сказали спасибо: 0  Спасибо
Похожие темы
[Профиль]    [ЛС]
Показать сообщения:    
Ответить на тему

Текущее время: Сегодня 02:51

Часовой пояс: GMT + 7



Вы не можете начинать темы
Вы не можете отвечать на сообщения
Вы не можете редактировать свои сообщения
Вы не можете удалять свои сообщения
Вы не можете голосовать в опросах
Вы не можете прикреплять файлы к сообщениям
Вы можете скачивать файлы